<?xml version="1.0" standalone="no"?>
<!DOCTYPE svg PUBLIC "-//W3C//DTD SVG 1.1//EN" "http://www.w3.org/Graphics/SVG/1.1/DTD/svg11.dtd" >
<svg xmlns="http://www.w3.org/2000/svg" xmlns:xlink="http://www.w3.org/1999/xlink" version="1.1">
<metadata>
Created by FontForge 20161013 at Tue Aug  1 23:37:43 2017
 By ,,,
Copyright B(c) 2017 ParaType Inc., ParaType Ltd. All rights reserved.
</metadata>
<defs>
<font id="PT_Russia-Bold" horiz-adv-x="550" >
  <font-face 
    font-family="PT_Russia"
    font-weight="700"
    font-stretch="normal"
    units-per-em="1000"
    panose-1="2 11 7 4 2 2 2 2 2 4"
    ascent="800"
    descent="-200"
    x-height="530"
    cap-height="700"
    bbox="-39 -209 1034 905"
    underline-thickness="50"
    underline-position="-150"
    unicode-range="U+000D-2212"
  />
<missing-glyph horiz-adv-x="500" 
d="M442 8v496h-384v-496h384zM50 512h400v-512h-400v512z" />
    <glyph glyph-name=".notdef" horiz-adv-x="500" 
d="M442 8v496h-384v-496h384zM50 512h400v-512h-400v512z" />
    <glyph glyph-name=".null" horiz-adv-x="0" 
 />
    <glyph glyph-name=".null" horiz-adv-x="0" 
 />
    <glyph glyph-name="nonmarkingreturn" unicode="&#xd;" horiz-adv-x="250" 
 />
    <glyph glyph-name="space" unicode=" " horiz-adv-x="250" 
 />
    <glyph glyph-name="exclam" unicode="!" horiz-adv-x="300" 
d="M150 -9q-35 0 -59 24t-24 59t24 59t59 24t59 -24t24 -59t-24 -59t-59 -24zM79 700h142v-480h-142v480z" />
    <glyph glyph-name="quotedbl" unicode="&#x22;" horiz-adv-x="360" 
d="M46 700h108v-235h-108v235zM206 700h108v-235h-108v235z" />
    <glyph glyph-name="numbersign" unicode="#" horiz-adv-x="580" 
d="M81 199h-75v105h95l21 112h-77v105h97l33 179h129l-34 -179h103l33 179h129l-33 -179h72v-105h-92l-21 -112h74v-105h-94l-36 -199h-129l37 199h-103l-36 -199h-129zM332 304l21 112h-102l-21 -112h102z" />
    <glyph glyph-name="dollar" unicode="$" 
d="M230 -6q-101 10 -150 64.5t-51 142.5h136q2 -41 18 -63t54 -29v196q-48 17 -84 36t-60 43t-36 55t-12 73q0 79 47 131t138 63v94h91v-94q91 -11 137 -65t48 -139h-136q-2 35 -15 56.5t-41 29.5v-177q58 -21 97.5 -43t64 -47.5t35 -57t10.5 -72.5q0 -81 -49.5 -134
t-150.5 -63v-94h-91v94zM385 184q0 32 -14.5 51.5t-56.5 38.5v-164q38 6 54.5 25.5t16.5 48.5zM181 519q0 -29 12.5 -45.5t43.5 -31.5v147q-29 -8 -42.5 -26.5t-13.5 -43.5z" />
    <glyph glyph-name="percent" unicode="%" horiz-adv-x="700" 
d="M166 371q-70 0 -109.5 39.5t-39.5 109.5v40q0 70 39.5 109.5t109.5 39.5t109.5 -39.5t39.5 -109.5v-40q0 -70 -39.5 -109.5t-109.5 -39.5zM166 451q26 0 39.5 15.5t13.5 53.5v40q0 38 -13.5 53.5t-39.5 15.5t-39.5 -15.5t-13.5 -53.5v-40q0 -38 13.5 -53.5t39.5 -15.5z
M524 700h119l-467 -700h-119zM535 -8q-70 0 -109.5 39.5t-39.5 109.5v40q0 70 39.5 109.5t109.5 39.5t109.5 -39.5t39.5 -109.5v-40q0 -70 -39.5 -109.5t-109.5 -39.5zM535 72q26 0 39.5 15.5t13.5 53.5v40q0 38 -13.5 53.5t-39.5 15.5t-39.5 -15.5t-13.5 -53.5v-40
q0 -38 13.5 -53.5t39.5 -15.5z" />
    <glyph glyph-name="ampersand" unicode="&#x26;" horiz-adv-x="700" 
d="M285 -9q-122 0 -181.5 54.5t-59.5 144.5q0 59 28.5 105t87.5 90q-31 35 -49.5 74t-18.5 94q0 33 12.5 61.5t37 49.5t60.5 33t83 12t83 -11.5t60.5 -31.5t37 -46.5t12.5 -56.5q0 -24 -6.5 -47t-22 -47t-42.5 -49t-68 -54l123 -133q19 44 19 97h133q0 -58 -14.5 -108
t-41.5 -91l121 -131h-160l-44 48q-40 -28 -87.5 -42.5t-102.5 -14.5zM285 111q59 0 103 29l-147 159q-36 -28 -48.5 -50.5t-12.5 -51.5q0 -40 25.5 -63t79.5 -23zM285 604q-31 0 -47.5 -16t-16.5 -42q0 -27 10.5 -48.5t28.5 -44.5q31 21 49 36.5t27 27.5t11 21t2 18
q0 18 -16.5 33t-47.5 15z" />
    <glyph glyph-name="quotesingle" unicode="'" horiz-adv-x="200" 
d="M46 700h108v-235h-108v235z" />
    <glyph glyph-name="parenleft" unicode="(" horiz-adv-x="360" 
d="M42 310q0 114 24.5 197t54.5 137q34 63 79 106h155q-48 -45 -85 -108q-16 -27 -31.5 -61.5t-27.5 -75.5t-19 -90t-7 -105v-20q0 -53 7 -99.5t19 -87.5t27.5 -75.5t31.5 -62.5q37 -66 85 -115h-158q-44 48 -78 113q-29 56 -53 137.5t-24 189.5v20z" />
    <glyph glyph-name="parenright" unicode=")" horiz-adv-x="360" 
d="M318 290q0 -108 -24.5 -189.5t-53.5 -137.5q-34 -65 -77 -113h-158q47 49 85 115q16 28 31 62.5t27 75.5t19.5 87.5t7.5 99.5v20q0 56 -7.5 105t-19.5 90t-27 75.5t-31 61.5q-38 63 -85 108h155q44 -43 79 -106q15 -27 29 -61t25 -76t18 -91t7 -106v-20v0z" />
    <glyph glyph-name="asterisk" unicode="*" horiz-adv-x="450" 
d="M182 451l-85 -56l-49 85l92 45l-92 46l49 84l85 -55l-5 100h96l-5 -100l85 55l49 -84l-91 -46l91 -45l-49 -85l-85 56l5 -101h-96z" />
    <glyph glyph-name="plus" unicode="+" 
d="M207 300h-150v120h150v158h136v-158h150v-120h-150v-158h-136v158z" />
    <glyph glyph-name="comma" unicode="," horiz-adv-x="300" 
d="M79 0v142h142v-142l-103 -171h-76z" />
    <glyph glyph-name="hyphen" unicode="-" horiz-adv-x="340" 
d="M33 380h274v-120h-274v120z" />
    <glyph glyph-name="hyphen" unicode="&#xad;" horiz-adv-x="340" 
d="M33 380h274v-120h-274v120z" />
    <glyph glyph-name="period" unicode="." horiz-adv-x="300" 
d="M150 -9q-38 0 -64 26t-26 64t26 64t64 26t64 -26t26 -64t-26 -64t-64 -26z" />
    <glyph glyph-name="slash" unicode="/" horiz-adv-x="500" 
d="M344 750h134l-322 -900h-134z" />
    <glyph glyph-name="zero" unicode="0" 
d="M275 -9q-59 0 -103 16t-73.5 53t-44.5 96.5t-15 146.5v100q0 85 15 143.5t44.5 94.5t73.5 52t103 16t103 -16t73.5 -52t44.5 -94.5t15 -143.5v-100q0 -87 -15 -146.5t-44.5 -96.5t-73.5 -53t-103 -16zM275 111q23 0 40.5 7.5t29 28.5t17.5 58.5t6 97.5v100q0 58 -6 94.5
t-17.5 57t-29 28t-40.5 7.5t-40.5 -7.5t-29 -28t-17.5 -57t-6 -94.5v-100q0 -60 6 -97.5t17.5 -58.5t29 -28.5t40.5 -7.5z" />
    <glyph glyph-name="one" unicode="1" 
d="M77 119h160v438l-153 -96v142l153 97h143v-581h130v-119h-433v119z" />
    <glyph glyph-name="two" unicode="2" 
d="M49 91l237 273q39 45 59 76.5t20 60.5q0 42 -23 65t-62 23t-62 -23t-23 -65h-136q0 43 16.5 80.5t46 66t70 45t88.5 16.5t88.5 -16.5t70 -45t46 -66t16.5 -80.5q0 -56 -33.5 -108.5t-82.5 -107.5l-149 -166h265v-119h-452v91z" />
    <glyph glyph-name="three" unicode="3" 
d="M265 -9q-54 0 -97 15.5t-73.5 43t-46.5 64t-16 78.5h140q0 -34 25 -57.5t68 -23.5t68 25t25 67q0 46 -27.5 71.5t-85.5 25.5h-61v120h61q54 0 78.5 22t24.5 66q0 38 -22 59.5t-61 21.5t-61 -20t-22 -52h-140q0 39 14.5 74t43 61.5t70 41.5t95.5 15q51 0 92 -15.5
t70.5 -41.5t45 -62t15.5 -76q0 -30 -8 -54t-20.5 -42.5t-29 -31.5t-34.5 -22q48 -20 75 -62.5t27 -105.5q0 -44 -16 -81t-46.5 -65t-73.5 -43.5t-97 -15.5z" />
    <glyph glyph-name="four" unicode="4" 
d="M332 140h-313v103l289 457h160v-440h63v-120h-63v-140h-136v140zM332 260v259l-165 -259h165z" />
    <glyph glyph-name="five" unicode="5" 
d="M276 -9q-53 0 -93.5 14.5t-68.5 40t-44 58.5t-20 71h143q7 -29 26.5 -46.5t56.5 -17.5t60.5 29t23.5 102t-23.5 102.5t-60.5 29.5q-30 0 -50 -19.5t-31 -45.5h-126v391h404v-119h-268v-133q16 16 44 30.5t66 14.5q41 0 75.5 -15t59.5 -45.5t39 -78t14 -112.5
q0 -130 -57.5 -190.5t-169.5 -60.5z" />
    <glyph glyph-name="six" unicode="6" 
d="M275 -9q-111 0 -172 61.5t-61 184.5v181q0 79 14.5 134.5t44 90t73 50.5t101.5 16q90 0 146 -39t75 -131h-146q-9 30 -28.5 40.5t-46.5 10.5q-24 0 -42 -6t-31 -22.5t-19.5 -46t-6.5 -75.5v-23q22 20 53.5 31t76.5 11q43 0 80 -15t64 -43.5t42.5 -69t15.5 -90.5v-32
q0 -101 -61.5 -159.5t-171.5 -58.5zM275 111q43 0 66.5 24.5t23.5 73.5v32q0 50 -23.5 74.5t-66.5 24.5t-66.5 -24t-23.5 -69v-38q0 -49 23.5 -73.5t66.5 -24.5z" />
    <glyph glyph-name="seven" unicode="7" 
d="M359 581h-308v119h448v-102l-212 -598h-145z" />
    <glyph glyph-name="eight" unicode="8" 
d="M275 -9q-57 0 -101 15t-74 41.5t-45.5 63t-15.5 78.5q0 60 27.5 101.5t75.5 69.5q-38 23 -62.5 63.5t-24.5 94.5q0 40 15.5 74.5t44 60.5t69 41t91.5 15t91.5 -15t69 -41t44 -60.5t15.5 -74.5q0 -54 -24.5 -94.5t-62.5 -63.5q48 -28 75.5 -69.5t27.5 -101.5
q0 -42 -15.5 -78.5t-45.5 -63t-74 -41.5t-101 -15zM275 107q45 0 72.5 26.5t27.5 62.5q0 45 -28 76t-72 39q-44 -8 -72 -39t-28 -76q0 -36 27.5 -62.5t72.5 -26.5zM275 593q-38 0 -61 -22.5t-23 -59.5q0 -21 7.5 -38t19.5 -30t27 -21.5t30 -12.5q15 4 30 12.5t27 21.5
t19.5 30t7.5 38q0 37 -23 59.5t-61 22.5z" />
    <glyph glyph-name="nine" unicode="9" 
d="M275 -9q-90 0 -146 39t-75 131h146q9 -30 28.5 -40.5t46.5 -10.5q24 0 42 6t31 22.5t19.5 46t6.5 75.5v23q-22 -20 -53.5 -31t-76.5 -11q-43 0 -80 15t-64 43.5t-42.5 69t-15.5 90.5v32q0 101 61.5 159.5t171.5 58.5q111 0 172 -61.5t61 -184.5v-181q0 -79 -15 -134.5
t-44 -90t-72.5 -50.5t-101.5 -16zM275 360q43 0 66.5 24t23.5 69v38q0 49 -23.5 73.5t-66.5 24.5t-66.5 -24.5t-23.5 -73.5v-32q0 -50 23.5 -74.5t66.5 -24.5z" />
    <glyph glyph-name="colon" unicode=":" horiz-adv-x="300" 
d="M150 -9q-38 0 -64 26t-26 64t26 64t64 26t64 -26t26 -64t-26 -64t-64 -26zM150 359q-38 0 -64 26t-26 64t26 64t64 26t64 -26t26 -64t-26 -64t-64 -26z" />
    <glyph glyph-name="semicolon" unicode=";" horiz-adv-x="300" 
d="M79 0v142h142v-142l-103 -171h-76zM150 359q-38 0 -64 26t-26 64t26 64t64 26t64 -26t26 -64t-26 -64t-64 -26z" />
    <glyph glyph-name="less" unicode="&#x3c;" 
d="M57 299v122l436 199v-143l-269 -114l269 -116v-147z" />
    <glyph glyph-name="equal" unicode="=" 
d="M57 299h436v-120h-436v120zM57 541h436v-120h-436v120z" />
    <glyph glyph-name="greater" unicode="&#x3e;" 
d="M57 243l269 114l-269 116v147l436 -199v-122l-436 -199v143z" />
    <glyph glyph-name="question" unicode="?" horiz-adv-x="500" 
d="M246 -9q-35 0 -58.5 24t-23.5 59t23.5 59t58.5 24t59 -24t24 -59t-24 -59t-59 -24zM182 257q0 19 3 36.5t12 35.5t24.5 37.5t40.5 40.5q33 29 50.5 55.5t17.5 57.5t-21 50t-59 19t-59 -19t-21 -50h-139q0 40 15 74.5t43 60t69 40t92 14.5t91.5 -14.5t69 -40t43.5 -60
t15 -74.5q0 -59 -28.5 -102t-74.5 -85q-17 -15 -27.5 -27.5t-16.5 -23t-8.5 -20.5t-2.5 -22v-20h-129v37z" />
    <glyph glyph-name="at" unicode="@" horiz-adv-x="800" 
d="M425 -117q-90 0 -162 27t-122 82t-77 136.5t-27 191.5q0 108 26.5 190t74.5 137t114.5 82.5t147.5 27.5q171 0 267 -102t96 -301q0 -122 -37.5 -177t-107.5 -55q-38 0 -68 16.5t-45 61.5q-20 -45 -55.5 -62t-77.5 -17q-67 0 -109 44.5t-42 134.5v40q0 48 12 82t32.5 55.5
t48 31.5t58.5 10q34 0 63.5 -17t43.5 -52v60h100v-210q0 -45 10 -59.5t29 -14.5q9 0 16 4t12.5 17.5t8 38.5t2.5 68q0 156 -63 227.5t-194 71.5q-56 0 -102 -19.5t-79 -60t-51 -103.5t-18 -150q0 -88 18.5 -151t54 -103.5t86.5 -59.5t116 -19q64 0 117 18.5t86 41.5v-114
q-37 -21 -87 -35.5t-116 -14.5zM400 225q32 0 49 18.5t17 56.5v40q0 38 -17 56.5t-49 18.5t-49 -18.5t-17 -56.5v-40q0 -38 17 -56.5t49 -18.5z" />
    <glyph glyph-name="A" unicode="A" horiz-adv-x="650" 
d="M250 700h150l243 -700h-153l-47 139h-240l-48 -139h-148zM403 259l-80 263l-81 -263h161z" />
    <glyph glyph-name="B" unicode="B" horiz-adv-x="650" 
d="M77 700h262q118 0 183.5 -48t65.5 -139q0 -52 -25.5 -89t-64.5 -59q52 -20 81.5 -59t29.5 -107q0 -42 -15 -78.5t-47 -63t-81.5 -42t-119.5 -15.5h-269v700zM339 119q70 0 98.5 24t28.5 68q0 46 -27.5 69.5t-99.5 23.5h-119v-185h119zM339 416q55 0 80.5 22.5t25.5 58.5
q0 39 -25 61.5t-81 22.5h-119v-165h119z" />
    <glyph glyph-name="C" unicode="C" horiz-adv-x="630" 
d="M330 -9q-129 0 -203.5 81t-74.5 248v80q0 152 74.5 230.5t203.5 78.5q62 0 109 -16t80 -46t52 -72.5t25 -95.5h-143q-9 51 -37 79t-86 28q-63 0 -99 -42.5t-36 -143.5v-80q0 -58 9.5 -97.5t26.5 -63.5t42 -34.5t57 -10.5q59 0 85.5 28.5t37.5 83.5h143
q-13 -112 -78 -173.5t-188 -61.5z" />
    <glyph glyph-name="D" unicode="D" horiz-adv-x="660" 
d="M77 700h253q129 0 203.5 -77.5t74.5 -228.5v-80q0 -157 -74.5 -235.5t-203.5 -78.5h-253v700zM330 119q63 0 99 45t36 150v80q0 99 -36 143t-99 44h-110v-462h110z" />
    <glyph glyph-name="E" unicode="E" horiz-adv-x="575" 
d="M77 700h455v-119h-312v-161h275v-120h-275v-181h312v-119h-455v700z" />
    <glyph glyph-name="F" unicode="F" horiz-adv-x="565" 
d="M77 700h459v-119h-316v-171h279v-120h-279v-290h-143v700z" />
    <glyph glyph-name="G" unicode="G" horiz-adv-x="660" 
d="M330 -9q-129 0 -203.5 81t-74.5 248v81q0 76 19 133.5t55 96.5t87.5 58.5t116.5 19.5q62 0 109 -16.5t80.5 -46.5t54 -72.5t29.5 -94.5h-145q-13 50 -41.5 78.5t-86.5 28.5q-63 0 -99 -42.5t-36 -143.5v-80q0 -58 9.5 -97.5t26.5 -63.5t42 -34.5t57 -10.5q69 0 102 34.5
t33 97.5h-135v112h278v-46q0 -83 -19.5 -143.5t-55.5 -100t-87.5 -58.5t-115.5 -19z" />
    <glyph glyph-name="H" unicode="H" horiz-adv-x="700" 
d="M77 700h143v-280h260v280h143v-700h-143v300h-260v-300h-143v700z" />
    <glyph glyph-name="I" unicode="I" horiz-adv-x="310" 
d="M84 700h142v-700h-142v700z" />
    <glyph glyph-name="J" unicode="J" horiz-adv-x="540" 
d="M236 -9q-113 0 -168 55.5t-59 158.5h143q4 -45 24 -68t60 -23q22 0 38.5 6.5t27.5 22t17 42t6 65.5v450h143v-450q0 -137 -57.5 -198t-174.5 -61z" />
    <glyph glyph-name="K" unicode="K" horiz-adv-x="675" 
d="M77 700h143v-304l226 304h166l-218 -283l262 -417h-169l-187 312l-80 -101v-211h-143v700z" />
    <glyph glyph-name="L" unicode="L" horiz-adv-x="540" 
d="M77 700h143v-581h309v-119h-452v700z" />
    <glyph glyph-name="M" unicode="M" horiz-adv-x="830" 
d="M77 700h144l198 -399l198 399h136v-700h-136v460l-151 -311h-102l-151 311v-460h-136v700z" />
    <glyph glyph-name="N" unicode="N" horiz-adv-x="700" 
d="M77 700h136l274 -468v468h136v-700h-136l-274 471v-471h-136v700z" />
    <glyph glyph-name="O" unicode="O" horiz-adv-x="660" 
d="M330 -9q-129 0 -203.5 80.5t-74.5 247.5v80q0 153 74.5 231.5t203.5 78.5t203.5 -78.5t74.5 -231.5v-80q0 -167 -74.5 -247.5t-203.5 -80.5zM330 114q31 0 56.5 10t42.5 34t26.5 63.5t9.5 97.5v80q0 101 -36 144t-99 43t-99 -43t-36 -144v-80q0 -58 9.5 -97.5t26.5 -63.5
t42 -34t57 -10z" />
    <glyph glyph-name="P" unicode="P" horiz-adv-x="640" 
d="M77 700h254q139 0 207 -63t68 -170q0 -108 -68 -171t-207 -63h-111v-233h-143v700zM331 353q71 0 101.5 28.5t30.5 85.5t-30.5 85.5t-101.5 28.5h-111v-228h111z" />
    <glyph glyph-name="Q" unicode="Q" horiz-adv-x="670" 
d="M481 29q-31 -20 -69 -29t-82 -9q-129 0 -203.5 80.5t-74.5 247.5v80q0 153 74.5 231.5t203.5 78.5t203.5 -78.5t74.5 -231.5v-80q0 -67 -12.5 -119.5t-35.5 -91.5l66 -67l-78 -78zM330 114q15 0 28.5 3t24.5 10l-71 72l79 78l61 -62q13 40 13 104v80q0 101 -36 144
t-99 43t-99 -43t-36 -144v-80q0 -58 9.5 -97.5t26.5 -63.5t42 -34t57 -10z" />
    <glyph glyph-name="R" unicode="R" horiz-adv-x="650" 
d="M77 700h257q69 0 120 -16t84.5 -45.5t50.5 -70t17 -89.5q0 -69 -31.5 -120t-95.5 -78l147 -281h-156l-129 256h-121v-256h-143v700zM334 376q69 0 99 27t30 76q0 48 -30 75t-99 27h-114v-205h114z" />
    <glyph glyph-name="S" unicode="S" horiz-adv-x="620" 
d="M309 -9q-70 0 -120 14.5t-82 42t-48 66.5t-17 87h144q2 -41 28.5 -64t94.5 -23t95.5 21.5t27.5 55.5q0 20 -7 35.5t-25 27.5t-48 23t-76 22q-56 14 -96.5 32.5t-67.5 43.5t-40 58.5t-13 78.5q0 44 15 80t46 62t78 40.5t111 14.5q128 0 188.5 -56t62.5 -151h-143
q-2 39 -26.5 61.5t-81.5 22.5t-82 -21t-25 -53q0 -19 7.5 -33t24.5 -25t45 -20.5t70 -19.5q60 -15 102.5 -34.5t70 -45.5t40.5 -61t13 -82q0 -45 -15.5 -81.5t-48 -63t-83 -41t-119.5 -14.5z" />
    <glyph glyph-name="T" unicode="T" horiz-adv-x="570" 
d="M214 581h-201v119h544v-119h-201v-581h-142v581z" />
    <glyph glyph-name="U" unicode="U" horiz-adv-x="690" 
d="M345 -9q-60 0 -110.5 17t-87 52t-57 90t-20.5 130v420h143v-420q0 -85 32 -125.5t100 -40.5t100 40.5t32 125.5v420h143v-419q0 -76 -20.5 -130.5t-57 -90t-87 -52.5t-110.5 -17z" />
    <glyph glyph-name="V" unicode="V" horiz-adv-x="650" 
d="M7 700h153l174 -515l161 515h148l-233 -700h-150z" />
    <glyph glyph-name="W" unicode="W" horiz-adv-x="920" 
d="M7 700h149l109 -501l124 501h142l128 -501l110 501h144l-169 -700h-156l-129 501l-127 -501h-156z" />
    <glyph glyph-name="X" unicode="X" horiz-adv-x="630" 
d="M230 367l-191 333h156l122 -218l122 218h152l-190 -330l210 -370h-157l-141 254l-142 -254h-152z" />
    <glyph glyph-name="Y" unicode="Y" horiz-adv-x="610" 
d="M244 286l-237 414h161l145 -264l134 264h156l-217 -414v-286h-142v286z" />
    <glyph glyph-name="Z" unicode="Z" horiz-adv-x="560" 
d="M34 105l334 476h-324v119h482v-105l-334 -476h334v-119h-492v105z" />
    <glyph glyph-name="bracketleft" unicode="[" horiz-adv-x="360" 
d="M72 750h257v-119h-114v-662h114v-119h-257v900z" />
    <glyph glyph-name="backslash" unicode="\" horiz-adv-x="500" 
d="M22 750h135l321 -900h-135z" />
    <glyph glyph-name="bracketright" unicode="]" horiz-adv-x="360" 
d="M31 -31h114v662h-114v119h257v-900h-257v119z" />
    <glyph glyph-name="asciicircum" unicode="^" 
d="M214 700h122l179 -260h-149l-93 139l-94 -139h-144z" />
    <glyph glyph-name="underscore" unicode="_" horiz-adv-x="500" 
d="M0 -72h500v-107h-500v107z" />
    <glyph glyph-name="grave" unicode="`" horiz-adv-x="280" 
d="M26 730h139l89 -160h-105z" />
    <glyph glyph-name="a" unicode="a" horiz-adv-x="510" 
d="M186 -6q-72 0 -113.5 40t-41.5 118q0 80 47 121.5t141 41.5h110v31q0 45 -18.5 63.5t-62.5 18.5q-42 0 -58.5 -14t-18.5 -39h-117q2 78 47.5 121t149.5 43q109 0 157 -46t48 -146v-347h-117v83q-10 -18 -23 -34.5t-31 -28.5t-42 -19t-57 -7zM227 102q49 0 75.5 27
t26.5 78v18h-95q-42 0 -58.5 -16.5t-16.5 -45.5q0 -61 68 -61z" />
    <glyph glyph-name="b" unicode="b" horiz-adv-x="555" 
d="M330 -6q-57 0 -91.5 24.5t-54.5 64.5v-83h-125v700h135v-244q19 38 53 60.5t83 22.5q86 0 135 -56t49 -180v-66q0 -65 -12.5 -111.5t-36.5 -75.5t-58 -42.5t-77 -13.5zM288 109q42 0 66.5 29t24.5 99v66q0 65 -24.5 93t-66.5 28q-45 0 -69.5 -28t-24.5 -93v-66
q0 -70 24.5 -99t69.5 -29z" />
    <glyph glyph-name="c" unicode="c" horiz-adv-x="510" 
d="M265 -9q-51 0 -92.5 16t-70.5 47.5t-45 77.5t-16 105v66q0 55 16 99t45 74.5t70.5 46.5t92.5 16t90 -14t66 -39t41.5 -59t16.5 -73h-136q-5 29 -23 49.5t-55 20.5q-41 0 -65 -28t-24 -93v-66q0 -72 24 -101.5t65 -29.5q37 0 55 20.5t23 49.5h136q-3 -41 -18 -74.5
t-41.5 -58.5t-65 -38.5t-89.5 -13.5z" />
    <glyph glyph-name="d" unicode="d" horiz-adv-x="555" 
d="M225 -6q-43 0 -77 13.5t-58 42.5t-36.5 75.5t-12.5 111.5v66q0 124 49 180t135 56q49 0 83 -22.5t53 -60.5v244h135v-700h-125v83q-20 -40 -54.5 -64.5t-91.5 -24.5zM267 109q45 0 69.5 29t24.5 99v66q0 65 -24.5 93t-69.5 28q-42 0 -66.5 -28t-24.5 -93v-66
q0 -70 24.5 -99t66.5 -29z" />
    <glyph glyph-name="e" unicode="e" horiz-adv-x="520" 
d="M265 -9q-51 0 -92.5 16t-70.5 47.5t-45 77.5t-16 105v66q0 113 59.5 174.5t159.5 61.5t159.5 -61.5t59.5 -175.5v-73h-303q1 -74 24.5 -102t64.5 -28q33 0 50 16.5t22 39.5h132q-11 -74 -62 -119t-142 -45zM264 431q-41 0 -63 -23.5t-25 -85.5h176q-3 62 -25 85.5
t-63 23.5z" />
    <glyph glyph-name="f" unicode="f" horiz-adv-x="340" 
d="M85 419h-68v111h68v16q0 41 9 70.5t31 48t57.5 27t89.5 8.5h41v-110h-37q-31 0 -43.5 -11t-12.5 -33v-16h93v-111h-93v-419h-135v419z" />
    <glyph glyph-name="g" unicode="g" horiz-adv-x="555" 
d="M225 -2q-86 0 -135 56t-49 183v66q0 123 49 178t135 55q57 0 91.5 -24.5t54.5 -64.5v83h125v-530q0 -104 -54.5 -156.5t-174.5 -52.5q-54 0 -92.5 12t-63.5 33t-38.5 49.5t-17.5 62.5h127q4 -9 9 -18t14.5 -16t24 -11t37.5 -4q51 0 72.5 22.5t21.5 78.5v74
q-19 -32 -53 -54t-83 -22zM267 106q45 0 69.5 29.5t24.5 101.5v66q0 63 -24.5 90.5t-69.5 27.5q-42 0 -66.5 -27.5t-24.5 -90.5v-66q0 -72 24.5 -101.5t66.5 -29.5z" />
    <glyph glyph-name="h" unicode="h" horiz-adv-x="555" 
d="M59 700h135v-241q18 35 52 57.5t84 22.5q80 0 125.5 -49.5t45.5 -152.5v-337h-135v316q0 58 -21.5 83t-59.5 25q-42 0 -66.5 -27t-24.5 -81v-316h-135v700z" />
    <glyph glyph-name="i" unicode="i" horiz-adv-x="280" 
d="M73 530h134v-530h-134v530zM140 570q-33 0 -56.5 23.5t-23.5 56.5t23.5 56.5t56.5 23.5t56.5 -23.5t23.5 -56.5t-23.5 -56.5t-56.5 -23.5z" />
    <glyph glyph-name="j" unicode="j" horiz-adv-x="280" 
d="M2 -89q38 0 54.5 19t16.5 70v530h134v-530q0 -58 -9.5 -96.5t-33 -61.5t-63 -32.5t-99.5 -9.5v111zM140 570q-33 0 -56.5 23.5t-23.5 56.5t23.5 56.5t56.5 23.5t56.5 -23.5t23.5 -56.5t-23.5 -56.5t-56.5 -23.5z" />
    <glyph glyph-name="k" unicode="k" horiz-adv-x="555" 
d="M59 699h132v-365l172 196h151l-189 -214l219 -316h-155l-149 218l-48 -53v-165h-133v699z" />
    <glyph glyph-name="l" unicode="l" horiz-adv-x="300" 
d="M247 0q-51 0 -86 9.5t-56 30.5t-30.5 55.5t-9.5 85.5v519h135v-519q0 -41 13.5 -55.5t45.5 -14.5h17v-111h-29z" />
    <glyph glyph-name="m" unicode="m" horiz-adv-x="835" 
d="M59 530h125v-83q18 41 56 66.5t83 25.5q106 0 149 -85q25 42 62.5 63.5t82.5 21.5q74 0 119 -50t45 -152v-337h-135v316q0 58 -20.5 83t-52.5 25q-37 0 -61.5 -27t-24.5 -81v-316h-134v316q0 58 -21 83t-53 25q-37 0 -61 -27t-24 -81v-316h-135v530z" />
    <glyph glyph-name="n" unicode="n" horiz-adv-x="555" 
d="M59 530h125v-83q18 41 57 66.5t89 25.5q80 0 125.5 -49.5t45.5 -152.5v-337h-135v316q0 58 -21.5 83t-59.5 25q-42 0 -66.5 -27t-24.5 -81v-316h-135v530z" />
    <glyph glyph-name="o" unicode="o" horiz-adv-x="540" 
d="M270 -9q-106 0 -167.5 63.5t-61.5 182.5v66q0 55 16 99t45.5 74.5t72 46.5t95.5 16t95.5 -16t72 -46.5t45.5 -74.5t16 -99v-66q0 -119 -61.5 -182.5t-167.5 -63.5zM270 106q45 0 69.5 29.5t24.5 101.5v66q0 65 -24.5 93t-69.5 28t-69.5 -28t-24.5 -93v-66
q0 -72 24.5 -101.5t69.5 -29.5z" />
    <glyph glyph-name="p" unicode="p" horiz-adv-x="555" 
d="M59 530h125v-83q20 40 54.5 64.5t91.5 24.5q86 0 135 -55t49 -178v-66q0 -66 -12.5 -112.5t-36.5 -76.5t-58 -43.5t-77 -13.5q-49 0 -83 22.5t-53 60.5v-274h-135v730zM288 106q42 0 66.5 29.5t24.5 101.5v66q0 63 -24.5 90.5t-66.5 27.5q-45 0 -69.5 -27.5t-24.5 -90.5
v-66q0 -72 24.5 -101.5t69.5 -29.5z" />
    <glyph glyph-name="q" unicode="q" horiz-adv-x="555" 
d="M361 74q-19 -38 -53 -60.5t-83 -22.5q-43 0 -77 13.5t-58 43.5t-36.5 76.5t-12.5 112.5v66q0 123 49 178t135 55q57 0 91.5 -24.5t54.5 -64.5v83h125v-730h-135v274zM267 106q45 0 69.5 29.5t24.5 101.5v66q0 63 -24.5 90.5t-69.5 27.5q-42 0 -66.5 -27.5t-24.5 -90.5
v-66q0 -72 24.5 -101.5t66.5 -29.5z" />
    <glyph glyph-name="r" unicode="r" horiz-adv-x="390" 
d="M62 530h124v-83q19 41 58 66.5t89 25.5q10 0 18 -1t14 -2q7 -1 12 -2v-123q-10 1 -21 3q-10 1 -23.5 2t-30.5 1q-51 0 -78.5 -26.5t-27.5 -74.5v-316h-134v530z" />
    <glyph glyph-name="s" unicode="s" horiz-adv-x="500" 
d="M250 -9q-56 0 -95.5 12t-65 33.5t-38.5 52t-15 66.5h132q4 -25 21 -40.5t61 -15.5q48 0 65.5 13.5t17.5 35.5q0 11 -3 20t-13 17t-28 15t-49 13q-102 20 -147.5 57.5t-45.5 105.5q0 73 50 118t153 45q102 0 150.5 -45t52.5 -118h-132q-4 27 -18.5 41t-52.5 14
q-40 0 -55.5 -12.5t-15.5 -35.5q0 -21 17.5 -35.5t71.5 -24.5t91.5 -24t61 -34t33.5 -47t10 -63q0 -73 -51.5 -118.5t-162.5 -45.5z" />
    <glyph glyph-name="t" unicode="t" horiz-adv-x="360" 
d="M274 0q-51 0 -86 9.5t-56 30.5t-30.5 55.5t-9.5 85.5v238h-72v111h72v120h134v-120h104v-111h-104v-238q0 -41 14 -55.5t46 -14.5h44v-111h-56z" />
    <glyph glyph-name="u" unicode="u" horiz-adv-x="545" 
d="M222 -9q-76 0 -122 49.5t-46 152.5v337h135v-316q0 -58 20.5 -83t55.5 -25q36 0 61 28t25 80v316h135v-530h-125v83q-18 -41 -54.5 -66.5t-84.5 -25.5z" />
    <glyph glyph-name="v" unicode="v" horiz-adv-x="530" 
d="M6 530h148l120 -365l107 365h143l-181 -530h-136z" />
    <glyph glyph-name="w" unicode="w" horiz-adv-x="770" 
d="M12 530h137l82 -365l91 365h128l93 -365l83 365h132l-137 -530h-142l-95 365l-93 -365h-142z" />
    <glyph glyph-name="x" unicode="x" horiz-adv-x="510" 
d="M174 272l-152 258h150l85 -154l86 154h145l-152 -253l165 -277h-150l-98 172l-99 -172h-145z" />
    <glyph glyph-name="y" unicode="y" horiz-adv-x="530" 
d="M88 -89q25 0 44 4.5t33 14t24.5 26t18.5 40.5l-202 534h148l120 -365l107 365h143l-183 -534q-21 -63 -42.5 -101.5t-50 -59.5t-67 -28t-93.5 -7v111z" />
    <glyph glyph-name="z" unicode="z" horiz-adv-x="480" 
d="M36 90l248 329h-238v111h398v-90l-247 -329h247v-111h-408v90z" />
    <glyph glyph-name="braceleft" unicode="{" horiz-adv-x="360" 
d="M254 -150q-94 0 -138 43.5t-44 137.5v168q0 23 -13.5 36.5t-36.5 13.5v122q23 0 36.5 13.5t13.5 36.5v148q0 94 45.5 137.5t136.5 43.5h75v-119h-52q-62 0 -62 -62v-193q0 -19 -13 -39t-33 -27q20 -7 33 -24.5t13 -41.5v-213q0 -62 62 -62h52v-119h-75z" />
    <glyph glyph-name="bar" unicode="|" horiz-adv-x="310" 
d="M85 750h140v-899h-140v899z" />
    <glyph glyph-name="braceright" unicode="}" horiz-adv-x="360" 
d="M31 -31h52q62 0 62 62v213q0 24 13 41.5t33 24.5q-20 7 -33 27t-13 39v193q0 62 -62 62h-52v119h75q91 0 136.5 -43.5t45.5 -137.5v-148q0 -23 13.5 -36.5t36.5 -13.5v-122q-23 0 -36.5 -13.5t-13.5 -36.5v-168q0 -94 -44 -137.5t-138 -43.5h-75v119z" />
    <glyph glyph-name="asciitilde" unicode="~" 
d="M358 262q-29 0 -52.5 12t-44 26.5t-39.5 26.5t-38 12q-20 0 -35 -10t-26 -22q-12 -14 -21 -31l-83 62q17 34 43 60q22 23 54 41.5t76 18.5q29 0 52.5 -12t44 -26.5t39.5 -26.5t38 -12q20 0 35 9.5t26 21.5q12 14 21 32l83 -62q-17 -34 -43 -60q-22 -23 -54 -41.5
t-76 -18.5z" />
    <glyph glyph-name="uni00A0" unicode="&#xa0;" horiz-adv-x="250" 
 />
    <glyph glyph-name="cent" unicode="&#xa2;" 
d="M212 1q-72 20 -112.5 79.5t-40.5 156.5v66q0 91 40.5 148.5t112.5 77.5v108h133v-105q71 -15 110.5 -63.5t42.5 -114.5h-136q-5 29 -23.5 49.5t-54.5 20.5q-42 0 -66 -28t-24 -93v-66q0 -72 24 -101.5t66 -29.5q36 0 54 20.5t24 49.5h136q-6 -69 -44 -116t-109 -62v-98
h-133v101z" />
    <glyph glyph-name="sterling" unicode="&#xa3;" 
d="M39 119h77v167h-67v120h67v94q0 102 52.5 155.5t151.5 53.5t150.5 -52.5t53.5 -147.5h-143q-2 44 -17 62t-44 18q-31 0 -46 -19t-15 -70v-94h130v-120h-130v-167h265v-119h-485v119z" />
    <glyph glyph-name="currency" unicode="&#xa4;" 
d="M19 190l79 80q-22 42 -22 90t22 90l-79 79l87 87l80 -80q41 22 89 22q24 0 47 -6t43 -16l80 80l86 -86l-80 -80q23 -41 23 -90q0 -48 -22 -90l79 -79l-87 -87l-80 80q-41 -22 -89 -22t-90 22l-80 -80zM275 268q19 0 35.5 7t29 19.5t19.5 29.5t7 36t-7 36t-19.5 29.5
t-29 19.5t-35.5 7t-35.5 -7t-29 -19.5t-19.5 -29.5t-7 -36t7 -36t19.5 -29.5t29 -19.5t35.5 -7z" />
    <glyph glyph-name="yen" unicode="&#xa5;" 
d="M214 111h-145v119h145v56h-145v119h75l-135 295h160l114 -281l102 281h156l-120 -295h80v-119h-145v-56h145v-119h-145v-111h-142v111z" />
    <glyph glyph-name="brokenbar" unicode="&#xa6;" horiz-adv-x="310" 
d="M85 200h140v-349h-140v349zM85 750h140v-349h-140v349z" />
    <glyph glyph-name="section" unicode="&#xa7;" 
d="M275 -109q-88 0 -136 45.5t-48 120.5h136q0 -46 48 -46t48 46q0 12 -4 22.5t-15.5 21t-32 21.5t-53.5 23q-40 16 -71 35t-52 43.5t-32 55.5t-11 71q0 59 32.5 99t82.5 64q-34 23 -55 54.5t-21 75.5q0 75 48 120.5t136 45.5t136 -45.5t48 -120.5h-136q0 46 -48 46t-48 -46
q0 -12 4.5 -22.5t16 -21t32 -21.5t52.5 -23q81 -31 123.5 -78t42.5 -127q0 -59 -32.5 -99.5t-82.5 -63.5q34 -23 55 -54.5t21 -75.5q0 -75 -48 -120.5t-136 -45.5zM275 266q18 0 34 6.5t27.5 18t18.5 27t7 32.5t-7 32.5t-18.5 27t-27.5 18t-34 6.5t-34 -6.5t-27.5 -18
t-18.5 -27t-7 -32.5t7 -32.5t18.5 -27t27.5 -18t34 -6.5z" />
    <glyph glyph-name="dieresis" unicode="&#xa8;" horiz-adv-x="430" 
d="M114 570q-33 0 -56 23.5t-23 56.5t23 56.5t56 23.5q34 0 57 -23.5t23 -56.5t-23 -56.5t-57 -23.5zM316 570q-34 0 -57 23.5t-23 56.5t23 56.5t57 23.5q33 0 56 -23.5t23 -56.5t-23 -56.5t-56 -23.5z" />
    <glyph glyph-name="copyright" unicode="&#xa9;" horiz-adv-x="780" 
d="M390 -9q-74 0 -139.5 28t-114.5 77t-77 114.5t-28 139.5t28 139.5t77 114t114.5 77t139.5 28.5t139.5 -28.5t114 -77t77 -114t28.5 -139.5t-28.5 -139.5t-77 -114.5t-114 -77t-139.5 -28zM390 84q55 0 103.5 20.5t84.5 56.5t56.5 84.5t20.5 104.5q0 55 -20.5 103.5
t-56.5 84.5t-84.5 57t-103.5 21t-103.5 -21t-84.5 -57t-56.5 -84.5t-20.5 -103.5q0 -56 20.5 -104.5t56.5 -84.5t84.5 -56.5t103.5 -20.5zM390 131q-84 0 -129 48.5t-45 150.5v50q0 94 45 141.5t129 47.5q39 0 69.5 -11t52 -29.5t33 -44t12.5 -55.5h-108q-2 23 -17.5 36
t-41.5 13q-33 0 -49.5 -21t-16.5 -77v-50q0 -64 16.5 -86t49.5 -22q26 0 41.5 13.5t17.5 37.5h108q-2 -61 -45.5 -101.5t-121.5 -40.5z" />
    <glyph glyph-name="guillemotleft" unicode="&#xab;" horiz-adv-x="560" 
d="M36 273v74l230 197v-128l-124 -103l124 -104v-133zM266 273v74l230 197v-128l-124 -103l124 -104v-133z" />
    <glyph glyph-name="logicalnot" unicode="&#xac;" 
d="M366 300h-309v120h436v-250h-127v130z" />
    <glyph glyph-name="registered" unicode="&#xae;" horiz-adv-x="590" 
d="M295 161q-57 0 -106.5 21.5t-87 59t-59 87t-21.5 106.5t21.5 106.5t59 87t87 59t106.5 21.5t106.5 -21.5t87 -59t59 -87t21.5 -106.5t-21.5 -106.5t-59 -87t-87 -59t-106.5 -21.5zM295 244q40 0 74.5 15t60.5 41t41 60.5t15 74.5t-15 74.5t-41 60.5t-60.5 41t-74.5 15
t-74.5 -15t-60.5 -41t-41 -60.5t-15 -74.5t15 -74.5t41 -60.5t60.5 -41t74.5 -15zM195 570h100q58 0 84.5 -23.5t26.5 -64.5q0 -55 -50 -78l49 -104h-73l-37 94h-32v-94h-68v270zM295 454q26 0 34.5 7t8.5 21t-8.5 21t-34.5 7h-32v-56h32z" />
    <glyph glyph-name="degree" unicode="&#xb0;" horiz-adv-x="320" 
d="M160 415q-30 0 -57 11.5t-47 31.5t-31.5 47t-11.5 57t11.5 57t31.5 47t47 31.5t57 11.5t57 -11.5t47 -31.5t31.5 -47t11.5 -57t-11.5 -57t-31.5 -47t-47 -31.5t-57 -11.5zM160 506q23 0 39.5 16.5t16.5 39.5t-16.5 39.5t-39.5 16.5t-39.5 -16.5t-16.5 -39.5t16.5 -39.5
t39.5 -16.5z" />
    <glyph glyph-name="plusminus" unicode="&#xb1;" 
d="M57 210h436v-120h-436v120zM207 365h-150v120h150v158h136v-158h150v-120h-150v-98h-136v98z" />
    <glyph glyph-name="acute" unicode="&#xb4;" horiz-adv-x="280" 
d="M115 730h139l-123 -160h-105z" />
    <glyph glyph-name="mu" unicode="&#xb5;" 
d="M59 530h135v-316q0 -58 20.5 -83t55.5 -25q36 0 61 28t25 80v316h135v-530h-125v69q-13 -35 -43 -56.5t-67 -21.5q-17 0 -34 5t-28 18v-164h-135v680z" />
    <glyph glyph-name="paragraph" unicode="&#xb6;" horiz-adv-x="680" 
d="M238 300q-41 0 -77.5 16t-63.5 43t-43 63.5t-16 77.5t16 77.5t43 63.5t63.5 43t77.5 16h364v-900h-136v781h-92v-781h-136v500z" />
    <glyph glyph-name="periodcentered" unicode="&#xb7;" horiz-adv-x="300" 
d="M150 229q-38 0 -64 26t-26 64t26 64t64 26t64 -26t26 -64t-26 -64t-64 -26z" />
    <glyph glyph-name="ordmasculine" unicode="&#xba;" horiz-adv-x="350" 
d="M175 371q-70 0 -109.5 39.5t-39.5 109.5v40q0 70 39.5 109.5t109.5 39.5t109.5 -39.5t39.5 -109.5v-40q0 -70 -39.5 -109.5t-109.5 -39.5zM175 451q26 0 39.5 15.5t13.5 53.5v40q0 38 -13.5 53.5t-39.5 15.5t-39.5 -15.5t-13.5 -53.5v-40q0 -38 13.5 -53.5t39.5 -15.5z
" />
    <glyph glyph-name="guillemotright" unicode="&#xbb;" horiz-adv-x="560" 
d="M64 204l124 103l-124 104v133l230 -197v-74l-230 -197v128zM294 204l124 103l-124 104v133l230 -197v-74l-230 -197v128z" />
    <glyph glyph-name="multiply" unicode="&#xd7;" 
d="M70 247l111 111l-111 112l95 95l112 -111l111 111l92 -92l-111 -111l111 -112l-95 -95l-112 111l-111 -111z" />
    <glyph glyph-name="divide" unicode="&#xf7;" 
d="M275 110q-32 0 -54 22t-22 54t22 54t54 22t54 -22t22 -54t-22 -54t-54 -22zM57 420h436v-120h-436v120zM275 458q-32 0 -54 22t-22 54t22 54t54 22t54 -22t22 -54t-22 -54t-54 -22z" />
    <glyph glyph-name="dotlessi" unicode="&#x131;" horiz-adv-x="280" 
d="M73 530h134v-530h-134v530z" />
    <glyph glyph-name="afii10023" unicode="&#x401;" horiz-adv-x="575" 
d="M77 700h455v-119h-312v-161h275v-120h-275v-181h312v-119h-455v700zM194 745q-33 0 -56.5 23.5t-23.5 56.5t23.5 56.5t56.5 23.5t56.5 -23.5t23.5 -56.5t-23.5 -56.5t-56.5 -23.5zM414 745q-33 0 -56.5 23.5t-23.5 56.5t23.5 56.5t56.5 23.5t56.5 -23.5t23.5 -56.5
t-23.5 -56.5t-56.5 -23.5z" />
    <glyph glyph-name="afii10051" unicode="&#x402;" horiz-adv-x="775" 
d="M214 581h-201v119h544v-119h-201v-201q25 24 64.5 41.5t100.5 17.5q98 0 149 -51.5t51 -150.5v-54q0 -92 -48 -137.5t-156 -45.5h-41v111h25q46 0 65.5 20t19.5 66v19q0 108 -110 108q-59 0 -89.5 -29t-30.5 -79v-216h-142v581z" />
    <glyph glyph-name="afii10052" unicode="&#x403;" horiz-adv-x="530" 
d="M77 700h442v-119h-299v-581h-143v700zM336 900h147l-126 -150h-120z" />
    <glyph glyph-name="afii10053" unicode="&#x404;" horiz-adv-x="630" 
d="M330 -9q-129 0 -203.5 81t-74.5 250v76q0 154 74.5 232.5t203.5 78.5q124 0 189 -61.5t77 -168.5h-143q-9 52 -37 79.5t-86 27.5q-60 0 -95.5 -39t-39.5 -131h215v-119h-214q2 -51 12 -86t27 -56.5t41 -31t54 -9.5q59 0 85.5 28.5t37.5 83.5h143q-13 -112 -78 -173.5
t-188 -61.5z" />
    <glyph glyph-name="afii10054" unicode="&#x405;" horiz-adv-x="620" 
d="M309 -9q-70 0 -120 14.5t-82 42t-48 66.5t-17 87h144q2 -41 28.5 -64t94.5 -23t95.5 21.5t27.5 55.5q0 20 -7 35.5t-25 27.5t-48 23t-76 22q-56 14 -96.5 32.5t-67.5 43.5t-40 58.5t-13 78.5q0 44 15 80t46 62t78 40.5t111 14.5q128 0 188.5 -56t62.5 -151h-143
q-2 39 -26.5 61.5t-81.5 22.5t-82 -21t-25 -53q0 -19 7.5 -33t24.5 -25t45 -20.5t70 -19.5q60 -15 102.5 -34.5t70 -45.5t40.5 -61t13 -82q0 -45 -15.5 -81.5t-48 -63t-83 -41t-119.5 -14.5z" />
    <glyph glyph-name="afii10055" unicode="&#x406;" horiz-adv-x="310" 
d="M84 700h142v-700h-142v700z" />
    <glyph glyph-name="afii10056" unicode="&#x407;" horiz-adv-x="310" 
d="M84 700h142v-700h-142v700zM46 745q-33 0 -56.5 23.5t-23.5 56.5t23.5 56.5t56.5 23.5t56.5 -23.5t23.5 -56.5t-23.5 -56.5t-56.5 -23.5zM266 745q-33 0 -56.5 23.5t-23.5 56.5t23.5 56.5t56.5 23.5t56.5 -23.5t23.5 -56.5t-23.5 -56.5t-56.5 -23.5z" />
    <glyph glyph-name="afii10057" unicode="&#x408;" horiz-adv-x="540" 
d="M236 -9q-113 0 -168 55.5t-59 158.5h143q4 -45 24 -68t60 -23q22 0 38.5 6.5t27.5 22t17 42t6 65.5v450h143v-450q0 -137 -57.5 -198t-174.5 -61z" />
    <glyph glyph-name="afii10058" unicode="&#x409;" horiz-adv-x="1030" 
d="M14 131q34 9 55.5 23t34.5 44t18 81.5t5 135.5v285h486v-253h108q70 0 121.5 -16t85.5 -45.5t51 -71t17 -91.5t-17 -91t-51 -70.5t-85.5 -45.5t-121.5 -16h-251v581h-200v-166q0 -125 -14.5 -203t-45.5 -124t-79.5 -66.5t-116.5 -30.5v140zM721 119q71 0 101.5 27
t30.5 77t-30.5 77t-101.5 27h-108v-208h108z" />
    <glyph glyph-name="afii10059" unicode="&#x40a;" horiz-adv-x="1040" 
d="M77 700h143v-263h260v263h143v-263h108q70 0 121.5 -16t85.5 -45t51 -69.5t17 -88.5t-17 -88t-51 -69t-85.5 -45t-121.5 -16h-251v317h-260v-317h-143v700zM731 119q71 0 101.5 26.5t30.5 72.5t-30.5 72.5t-101.5 26.5h-108v-198h108z" />
    <glyph glyph-name="afii10060" unicode="&#x40b;" horiz-adv-x="780" 
d="M214 581h-201v119h544v-119h-201v-201q25 24 64.5 41.5t100.5 17.5q98 0 149 -51.5t51 -150.5v-237h-135v216q0 108 -110 108q-59 0 -89.5 -29t-30.5 -79v-216h-142v581z" />
    <glyph glyph-name="afii10061" unicode="&#x40c;" horiz-adv-x="660" 
d="M77 700h143v-282h63l178 282h161l-221 -334l241 -366h-169l-190 299h-63v-299h-143v700zM388 900h147l-126 -150h-120z" />
    <glyph glyph-name="afii10062" unicode="&#x40e;" horiz-adv-x="620" 
d="M124 111q64 0 90.5 13t34.5 34l7 17l-249 525h153l162 -367l142 367h149l-223 -542q-20 -50 -41.5 -82.5t-51.5 -51.5t-71.5 -26t-101.5 -7v120zM310 741q-104 0 -149 41t-45 118h132q0 -37 14.5 -52.5t47.5 -15.5t48 15.5t15 52.5h131q0 -77 -45 -118t-149 -41z" />
    <glyph glyph-name="afii10145" unicode="&#x40f;" horiz-adv-x="690" 
d="M281 0h-204v700h143v-581h250v581h143v-700h-204v-130h-128v130z" />
    <glyph glyph-name="afii10017" unicode="&#x410;" horiz-adv-x="650" 
d="M250 700h150l243 -700h-153l-47 139h-240l-48 -139h-148zM403 259l-80 263l-81 -263h161z" />
    <glyph glyph-name="afii10018" unicode="&#x411;" horiz-adv-x="650" 
d="M77 700h467v-119h-324v-134h111q70 0 121.5 -16t85.5 -45.5t51 -71t17 -91.5t-17 -91t-51 -70.5t-85.5 -45.5t-121.5 -16h-254v700zM331 119q71 0 101.5 27t30.5 77t-30.5 77t-101.5 27h-111v-208h111z" />
    <glyph glyph-name="afii10019" unicode="&#x412;" horiz-adv-x="650" 
d="M77 700h262q118 0 183.5 -48t65.5 -139q0 -52 -25.5 -89t-64.5 -59q52 -20 81.5 -59t29.5 -107q0 -42 -15 -78.5t-47 -63t-81.5 -42t-119.5 -15.5h-269v700zM339 119q70 0 98.5 24t28.5 68q0 46 -27.5 69.5t-99.5 23.5h-119v-185h119zM339 416q55 0 80.5 22.5t25.5 58.5
q0 39 -25 61.5t-81 22.5h-119v-165h119z" />
    <glyph glyph-name="afii10020" unicode="&#x413;" horiz-adv-x="530" 
d="M77 700h442v-119h-299v-581h-143v700z" />
    <glyph glyph-name="afii10021" unicode="&#x414;" horiz-adv-x="730" 
d="M14 119h63q22 34 35.5 72.5t21 86t10 105.5t2.5 132v185h478v-581h87v-249h-129v130h-439v-130h-129v249zM481 119v462h-192v-66q0 -62 -2 -116t-8 -102.5t-17 -92.5t-29 -85h248z" />
    <glyph glyph-name="afii10022" unicode="&#x415;" horiz-adv-x="575" 
d="M77 700h455v-119h-312v-161h275v-120h-275v-181h312v-119h-455v700z" />
    <glyph glyph-name="afii10024" unicode="&#x416;" horiz-adv-x="940" 
d="M217 357l-173 343h166l125 -283h64v283h142v-283h64l134 283h157l-173 -339l203 -361h-166l-155 297h-64v-297h-142v297h-64l-164 -297h-157z" />
    <glyph glyph-name="afii10025" unicode="&#x417;" horiz-adv-x="605" 
d="M293 -9q-118 0 -184.5 57t-79.5 157h143q8 -42 37 -66.5t84 -24.5q68 0 96.5 24.5t28.5 66.5q0 46 -28.5 70.5t-96.5 24.5h-91v120h91q52 0 77.5 23t25.5 59q0 40 -25.5 63.5t-77.5 23.5q-51 0 -80 -23.5t-31 -63.5h-136q4 45 22.5 83.5t50 66.5t75.5 44t99 16
q61 0 107 -15t77 -41t46.5 -62t15.5 -78q0 -51 -25.5 -88t-70.5 -59q54 -20 86 -59.5t32 -110.5q0 -46 -16 -84.5t-49 -66t-83.5 -42.5t-119.5 -15z" />
    <glyph glyph-name="afii10026" unicode="&#x418;" horiz-adv-x="710" 
d="M77 700h143v-470l268 470h145v-700h-143v470l-271 -470h-142v700z" />
    <glyph glyph-name="afii10027" unicode="&#x419;" horiz-adv-x="710" 
d="M77 700h143v-470l268 470h145v-700h-143v470l-271 -470h-142v700zM355 741q-104 0 -149 41t-45 118h132q0 -37 14.5 -52.5t47.5 -15.5t48 15.5t15 52.5h131q0 -77 -45 -118t-149 -41z" />
    <glyph glyph-name="afii10028" unicode="&#x41a;" horiz-adv-x="660" 
d="M77 700h143v-282h63l178 282h161l-221 -334l241 -366h-169l-190 299h-63v-299h-143v700z" />
    <glyph glyph-name="afii10029" unicode="&#x41b;" horiz-adv-x="690" 
d="M14 131q34 9 55.5 23t34.5 44t18 81.5t5 135.5v285h486v-700h-143v581h-200v-166q0 -125 -14.5 -203t-45.5 -124t-79.5 -66.5t-116.5 -30.5v140z" />
    <glyph glyph-name="afii10030" unicode="&#x41c;" horiz-adv-x="830" 
d="M77 700h144l198 -399l198 399h136v-700h-136v460l-151 -311h-102l-151 311v-460h-136v700z" />
    <glyph glyph-name="afii10031" unicode="&#x41d;" horiz-adv-x="700" 
d="M77 700h143v-280h260v280h143v-700h-143v300h-260v-300h-143v700z" />
    <glyph glyph-name="afii10032" unicode="&#x41e;" horiz-adv-x="660" 
d="M330 -9q-129 0 -203.5 80.5t-74.5 247.5v80q0 153 74.5 231.5t203.5 78.5t203.5 -78.5t74.5 -231.5v-80q0 -167 -74.5 -247.5t-203.5 -80.5zM330 114q31 0 56.5 10t42.5 34t26.5 63.5t9.5 97.5v80q0 101 -36 144t-99 43t-99 -43t-36 -144v-80q0 -58 9.5 -97.5t26.5 -63.5
t42 -34t57 -10z" />
    <glyph glyph-name="afii10033" unicode="&#x41f;" horiz-adv-x="690" 
d="M77 700h536v-700h-143v581h-250v-581h-143v700z" />
    <glyph glyph-name="afii10034" unicode="&#x420;" horiz-adv-x="640" 
d="M77 700h254q139 0 207 -63t68 -170q0 -108 -68 -171t-207 -63h-111v-233h-143v700zM331 353q71 0 101.5 28.5t30.5 85.5t-30.5 85.5t-101.5 28.5h-111v-228h111z" />
    <glyph glyph-name="afii10035" unicode="&#x421;" horiz-adv-x="630" 
d="M330 -9q-129 0 -203.5 81t-74.5 248v80q0 152 74.5 230.5t203.5 78.5q62 0 109 -16t80 -46t52 -72.5t25 -95.5h-143q-9 51 -37 79t-86 28q-63 0 -99 -42.5t-36 -143.5v-80q0 -58 9.5 -97.5t26.5 -63.5t42 -34.5t57 -10.5q59 0 85.5 28.5t37.5 83.5h143
q-13 -112 -78 -173.5t-188 -61.5z" />
    <glyph glyph-name="afii10036" unicode="&#x422;" horiz-adv-x="570" 
d="M214 581h-201v119h544v-119h-201v-581h-142v581z" />
    <glyph glyph-name="afii10037" unicode="&#x423;" horiz-adv-x="620" 
d="M124 111q64 0 90.5 13t34.5 34l7 17l-249 525h153l162 -367l142 367h149l-223 -542q-20 -50 -41.5 -82.5t-51.5 -51.5t-71.5 -26t-101.5 -7v120z" />
    <glyph glyph-name="afii10038" unicode="&#x424;" horiz-adv-x="820" 
d="M339 51q-148 0 -219 71.5t-71 220.5v34q0 134 71 203t219 69v51h142v-51q148 0 219 -69t71 -203v-34q0 -149 -71 -220.5t-219 -71.5v-51h-142v51zM628 377q0 83 -33.5 117t-113.5 34v-356q40 0 68 8.5t45.5 28.5t25.5 52.5t8 81.5v34zM192 343q0 -49 8 -81.5t25.5 -52.5
t45.5 -28.5t68 -8.5v356q-80 0 -113.5 -34t-33.5 -117v-34z" />
    <glyph glyph-name="afii10039" unicode="&#x425;" horiz-adv-x="630" 
d="M230 367l-191 333h156l122 -218l122 218h152l-190 -330l210 -370h-157l-141 254l-142 -254h-152z" />
    <glyph glyph-name="afii10040" unicode="&#x426;" horiz-adv-x="710" 
d="M567 0h-490v700h143v-581h240v581h143v-581h93v-249h-129v130z" />
    <glyph glyph-name="afii10041" unicode="&#x427;" horiz-adv-x="630" 
d="M410 280q-17 -11 -56 -24.5t-93 -13.5q-62 0 -107 14t-74 45t-42.5 80t-13.5 119v200h143v-199q0 -77 28 -106.5t96 -29.5q44 0 74 13.5t45 30.5v291h143v-700h-143v280z" />
    <glyph glyph-name="afii10042" unicode="&#x428;" horiz-adv-x="950" 
d="M77 700h143v-581h184v581h142v-581h184v581h143v-700h-796v700z" />
    <glyph glyph-name="afii10043" unicode="&#x429;" horiz-adv-x="980" 
d="M837 0h-760v700h143v-581h184v581h142v-581h184v581h143v-581h93v-249h-129v130z" />
    <glyph glyph-name="afii10044" unicode="&#x42a;" horiz-adv-x="705" 
d="M142 580h-142v120h285v-253h111q70 0 121.5 -16t85.5 -45.5t51 -71t17 -91.5t-17 -91t-51 -70.5t-85.5 -45.5t-121.5 -16h-254v580zM396 119q71 0 101.5 27t30.5 77t-30.5 77t-101.5 27h-111v-208h111z" />
    <glyph glyph-name="afii10045" unicode="&#x42b;" horiz-adv-x="840" 
d="M77 700h143v-253h83q69 0 121 -16t86 -45.5t51 -71t17 -91.5t-17 -91t-51 -70.5t-86 -45.5t-121 -16h-226v700zM303 119q71 0 101.5 27t30.5 77t-30.5 77t-101.5 27h-83v-208h83zM620 700h143v-700h-143v700z" />
    <glyph glyph-name="afii10046" unicode="&#x42c;" horiz-adv-x="640" 
d="M77 700h143v-253h111q70 0 121.5 -16t85.5 -45.5t51 -71t17 -91.5t-17 -91t-51 -70.5t-85.5 -45.5t-121.5 -16h-254v700zM331 119q71 0 101.5 27t30.5 77t-30.5 77t-101.5 27h-111v-208h111z" />
    <glyph glyph-name="afii10047" unicode="&#x42d;" horiz-adv-x="630" 
d="M300 -9q-123 0 -188 61.5t-78 173.5h143q11 -55 37.5 -83.5t85.5 -28.5q30 0 53.5 9.5t41 31t27.5 56.5t12 86h-214v119h214q-4 92 -39 131t-94 39q-54 0 -81 -27.5t-36 -79.5h-140q12 108 75.5 169t181.5 61q64 0 115.5 -20t87.5 -59t55 -97t19 -135v-76
q0 -169 -74.5 -250t-203.5 -81z" />
    <glyph glyph-name="afii10048" unicode="&#x42e;" horiz-adv-x="870" 
d="M560 -9q-59 0 -105.5 17t-79.5 54.5t-51.5 96t-21.5 141.5h-82v-300h-143v701h143v-281h83q6 151 73.5 220t183.5 69q61 0 109 -18.5t81 -57t50.5 -98.5t17.5 -143v-64q0 -90 -17.5 -154t-50.5 -104.5t-81 -59.5t-109 -19zM560 114q27 0 48 8.5t36 32t23 65.5t8 108v64
q0 59 -8 96.5t-23 59.5t-36 30t-48 8q-26 0 -47.5 -8t-36.5 -30t-23 -59.5t-8 -96.5v-64q0 -66 8 -108t23 -65.5t36.5 -32t47.5 -8.5z" />
    <glyph glyph-name="afii10049" unicode="&#x42f;" horiz-adv-x="650" 
d="M177 279q-65 26 -97.5 78t-32.5 122q0 49 16.5 89.5t50.5 70t84 45.5t118 16h257v-700h-143v256h-119l-135 -256h-152zM430 376v205h-114q-66 0 -96 -27t-30 -75q0 -49 30 -76t96 -27h114z" />
    <glyph glyph-name="afii10065" unicode="&#x430;" horiz-adv-x="510" 
d="M186 -6q-72 0 -113.5 40t-41.5 118q0 80 47 121.5t141 41.5h110v31q0 45 -18.5 63.5t-62.5 18.5q-42 0 -58.5 -14t-18.5 -39h-117q2 78 47.5 121t149.5 43q109 0 157 -46t48 -146v-347h-117v83q-10 -18 -23 -34.5t-31 -28.5t-42 -19t-57 -7zM227 102q49 0 75.5 27
t26.5 78v18h-95q-42 0 -58.5 -16.5t-16.5 -45.5q0 -61 68 -61z" />
    <glyph glyph-name="afii10066" unicode="&#x431;" horiz-adv-x="540" 
d="M270 -9q-106 0 -167.5 69.5t-61.5 221.5v64q0 83 8.5 152t33.5 119.5t69.5 80t115.5 33.5q40 2 70 4t53 5t40.5 8t34.5 13v-115q-12 -7 -26.5 -11.5t-35.5 -8.5t-49.5 -6.5t-67.5 -4.5q-69 -5 -100 -43.5t-37 -104.5q27 29 59.5 45.5t70.5 16.5q49 0 89.5 -16t69 -45.5
t44.5 -71t16 -93.5v-66q0 -119 -61.5 -182.5t-167.5 -63.5zM270 106q45 0 69.5 29.5t24.5 101.5v66q0 57 -24.5 84t-69.5 27t-69.5 -27t-24.5 -84v-66q0 -72 24.5 -101.5t69.5 -29.5z" />
    <glyph glyph-name="afii10067" unicode="&#x432;" horiz-adv-x="535" 
d="M59 530h209q56 0 96 -10.5t65.5 -30t37 -46t11.5 -57.5q0 -20 -6.5 -37t-17.5 -30.5t-24.5 -23.5t-28.5 -16q49 -14 73 -47.5t24 -82.5q0 -70 -50 -109.5t-160 -39.5h-229v530zM288 104q41 0 58 15t17 44t-17 43.5t-58 14.5h-102v-117h102zM268 319q42 0 58.5 14t16.5 40
q0 25 -16.5 39t-58.5 14h-82v-107h82z" />
    <glyph glyph-name="afii10068" unicode="&#x433;" horiz-adv-x="410" 
d="M59 530h345v-111h-210v-419h-135v530z" />
    <glyph glyph-name="afii10069" unicode="&#x434;" horiz-adv-x="600" 
d="M9 111h40q24 25 37 53.5t19 63t7.5 77.5t1.5 97v128h394v-419h67v-236h-121v125h-324v-125h-121v236zM374 111v308h-132v-34q0 -87 -10 -153.5t-37 -120.5h179z" />
    <glyph glyph-name="afii10070" unicode="&#x435;" horiz-adv-x="520" 
d="M265 -9q-51 0 -92.5 16t-70.5 47.5t-45 77.5t-16 105v66q0 113 59.5 174.5t159.5 61.5t159.5 -61.5t59.5 -175.5v-73h-303q1 -74 24.5 -102t64.5 -28q33 0 50 16.5t22 39.5h132q-11 -74 -62 -119t-142 -45zM264 431q-41 0 -63 -23.5t-25 -85.5h176q-3 62 -25 85.5
t-63 23.5z" />
    <glyph glyph-name="afii10072" unicode="&#x436;" horiz-adv-x="750" 
d="M156 267l-132 263h149l97 -204h38v204h134v-204h38l101 204h145l-132 -253l147 -277h-153l-107 214h-39v-214h-134v214h-39l-112 -214h-148z" />
    <glyph glyph-name="afii10073" unicode="&#x437;" horiz-adv-x="490" 
d="M235 -9q-54 0 -94 13t-67.5 35.5t-41.5 53.5t-15 66h135q2 -29 21.5 -46.5t61.5 -17.5q44 0 63.5 17.5t19.5 46.5t-19.5 45.5t-63.5 16.5h-71v98h66q33 0 50.5 15.5t17.5 42.5q0 26 -17 42t-51 16q-31 0 -48 -16t-19 -42h-136q1 35 17 65t43 51.5t64 33.5t79 12
q53 0 91.5 -12t63 -32.5t36.5 -48.5t12 -59q0 -22 -6.5 -40t-17.5 -32t-24.5 -24t-28.5 -16q49 -14 73 -48.5t24 -78.5q0 -70 -52.5 -113.5t-165.5 -43.5z" />
    <glyph glyph-name="afii10074" unicode="&#x438;" horiz-adv-x="570" 
d="M59 530h120v-356l201 356h131v-530h-120v356l-201 -356h-131v530z" />
    <glyph glyph-name="afii10075" unicode="&#x439;" horiz-adv-x="570" 
d="M59 530h120v-356l201 356h131v-530h-120v356l-201 -356h-131v530zM285 574q-86 0 -123.5 38t-37.5 105h109q0 -38 13 -52.5t39 -14.5t39 14.5t13 52.5h109q0 -67 -37.5 -105t-123.5 -38z" />
    <glyph glyph-name="afii10076" unicode="&#x43a;" horiz-adv-x="535" 
d="M59 530h135v-204h37l131 204h145l-166 -252l185 -278h-153l-140 214h-39v-214h-135v530z" />
    <glyph glyph-name="afii10077" unicode="&#x43b;" horiz-adv-x="565" 
d="M16 113q26 7 42 22.5t25 39.5t12.5 57.5t3.5 76.5v221h407v-530h-135v419h-145v-110q0 -78 -11 -137.5t-36 -99.5t-65 -60.5t-98 -20.5v122z" />
    <glyph glyph-name="afii10078" unicode="&#x43c;" horiz-adv-x="680" 
d="M59 530h136l150 -285l149 285h127v-530h-120v336l-113 -216h-94l-115 216v-336h-120v530z" />
    <glyph glyph-name="afii10079" unicode="&#x43d;" horiz-adv-x="570" 
d="M59 530h135v-204h182v204h135v-530h-135v214h-182v-214h-135v530z" />
    <glyph glyph-name="afii10080" unicode="&#x43e;" horiz-adv-x="540" 
d="M270 -9q-106 0 -167.5 63.5t-61.5 182.5v66q0 55 16 99t45.5 74.5t72 46.5t95.5 16t95.5 -16t72 -46.5t45.5 -74.5t16 -99v-66q0 -119 -61.5 -182.5t-167.5 -63.5zM270 106q45 0 69.5 29.5t24.5 101.5v66q0 65 -24.5 93t-69.5 28t-69.5 -28t-24.5 -93v-66
q0 -72 24.5 -101.5t69.5 -29.5z" />
    <glyph glyph-name="afii10081" unicode="&#x43f;" horiz-adv-x="560" 
d="M59 530h442v-530h-135v419h-172v-419h-135v530z" />
    <glyph glyph-name="afii10082" unicode="&#x440;" horiz-adv-x="555" 
d="M59 530h125v-83q20 40 54.5 64.5t91.5 24.5q86 0 135 -55t49 -178v-66q0 -66 -12.5 -112.5t-36.5 -76.5t-58 -43.5t-77 -13.5q-49 0 -83 22.5t-53 60.5v-274h-135v730zM288 106q42 0 66.5 29.5t24.5 101.5v66q0 63 -24.5 90.5t-66.5 27.5q-45 0 -69.5 -27.5t-24.5 -90.5
v-66q0 -72 24.5 -101.5t69.5 -29.5z" />
    <glyph glyph-name="afii10083" unicode="&#x441;" horiz-adv-x="510" 
d="M265 -9q-51 0 -92.5 16t-70.5 47.5t-45 77.5t-16 105v66q0 55 16 99t45 74.5t70.5 46.5t92.5 16t90 -14t66 -39t41.5 -59t16.5 -73h-136q-5 29 -23 49.5t-55 20.5q-41 0 -65 -28t-24 -93v-66q0 -72 24 -101.5t65 -29.5q37 0 55 20.5t23 49.5h136q-3 -41 -18 -74.5
t-41.5 -58.5t-65 -38.5t-89.5 -13.5z" />
    <glyph glyph-name="afii10084" unicode="&#x442;" horiz-adv-x="460" 
d="M163 419h-157v111h448v-111h-157v-419h-134v419z" />
    <glyph glyph-name="afii10085" unicode="&#x443;" horiz-adv-x="530" 
d="M88 -89q25 0 44 4.5t33 14t24.5 26t18.5 40.5l-202 534h148l120 -365l107 365h143l-183 -534q-21 -63 -42.5 -101.5t-50 -59.5t-67 -28t-93.5 -7v111z" />
    <glyph glyph-name="afii10086" unicode="&#x444;" horiz-adv-x="710" 
d="M288 -9q-120 0 -183.5 63.5t-63.5 183.5v64q0 111 63.5 174t183.5 63v171h134v-171q119 0 183 -62.5t64 -175.5v-64q0 -119 -64 -182.5t-183 -63.5v-191h-134v191zM534 301q0 67 -27.5 95t-87.5 28v-318q60 0 87.5 29t27.5 102v64zM176 238q0 -37 6 -62t19.5 -40.5
t35.5 -22.5t54 -7v318q-62 0 -88.5 -28t-26.5 -94v-64z" />
    <glyph glyph-name="afii10087" unicode="&#x445;" horiz-adv-x="510" 
d="M174 272l-152 258h150l85 -154l86 154h145l-152 -253l165 -277h-150l-98 172l-99 -172h-145z" />
    <glyph glyph-name="afii10088" unicode="&#x446;" horiz-adv-x="580" 
d="M439 0h-380v530h135v-419h162v419h135v-419h68v-236h-120v125z" />
    <glyph glyph-name="afii10089" unicode="&#x447;" horiz-adv-x="505" 
d="M311 207q-17 -13 -46 -22.5t-64 -9.5q-88 0 -131 44t-43 138v173h134v-152q0 -50 18 -69.5t58 -19.5q29 0 48 12t26 25v204h135v-530h-135v207z" />
    <glyph glyph-name="afii10090" unicode="&#x448;" horiz-adv-x="780" 
d="M59 530h135v-419h129v419h134v-419h129v419h135v-530h-662v530z" />
    <glyph glyph-name="afii10091" unicode="&#x449;" horiz-adv-x="810" 
d="M669 0h-610v530h135v-419h129v419h134v-419h129v419h135v-419h68v-236h-120v125z" />
    <glyph glyph-name="afii10092" unicode="&#x44a;" horiz-adv-x="590" 
d="M134 419h-128v111h263v-181h86q112 0 163 -46t51 -129t-51 -128.5t-163 -45.5h-221v419zM355 111q45 0 62 15.5t17 47.5t-17 48t-62 16h-86v-127h86z" />
    <glyph glyph-name="afii10093" unicode="&#x44b;" horiz-adv-x="690" 
d="M59 530h135v-181h42q112 0 163 -46t51 -129t-51 -128.5t-163 -45.5h-177v530zM236 104q50 0 68 16.5t18 53.5q0 38 -18 54.5t-68 16.5h-42v-141h42zM496 530h135v-530h-135v530z" />
    <glyph glyph-name="afii10094" unicode="&#x44c;" horiz-adv-x="515" 
d="M59 530h135v-181h86q112 0 163 -46t51 -129t-51 -128.5t-163 -45.5h-221v530zM280 111q45 0 62 15.5t17 47.5t-17 48t-62 16h-86v-127h86z" />
    <glyph glyph-name="afii10095" unicode="&#x44d;" horiz-adv-x="515" 
d="M245 -9q-50 0 -88 13.5t-65 36.5t-42 54.5t-18 66.5h130q7 -26 26 -43t57 -17q41 0 65 25t28 87h-159v105h160q-3 58 -27.5 83.5t-65.5 25.5q-35 0 -54 -17t-26 -43h-125q1 34 15.5 65t41 54.5t64 37.5t84.5 14q52 0 94.5 -16t72 -46.5t45.5 -74.5t16 -100v-64
q0 -120 -61.5 -183.5t-167.5 -63.5z" />
    <glyph glyph-name="afii10096" unicode="&#x44e;" horiz-adv-x="725" 
d="M465 -9q-97 0 -151.5 55.5t-59.5 167.5h-60v-214h-135v530h135v-204h60q5 104 59.5 158.5t151.5 54.5q103 0 161 -60.5t58 -175.5v-66q0 -123 -58 -184.5t-161 -61.5zM465 106q20 0 36 6.5t26.5 21.5t16 40t5.5 63v66q0 68 -22 94.5t-62 26.5q-41 0 -62.5 -26.5
t-21.5 -94.5v-66q0 -38 5.5 -63t16 -40t26.5 -21.5t36 -6.5z" />
    <glyph glyph-name="afii10097" unicode="&#x44f;" horiz-adv-x="540" 
d="M147 203q-51 20 -74.5 58.5t-23.5 94.5q0 83 51 128.5t163 45.5h218v-530h-135v185h-73l-103 -185h-141zM345 292v127h-84q-44 0 -61.5 -15.5t-17.5 -47.5t17.5 -48t61.5 -16h84z" />
    <glyph glyph-name="afii10071" unicode="&#x451;" horiz-adv-x="520" 
d="M265 -9q-51 0 -92.5 16t-70.5 47.5t-45 77.5t-16 105v66q0 113 59.5 174.5t159.5 61.5t159.5 -61.5t59.5 -175.5v-73h-303q1 -74 24.5 -102t64.5 -28q33 0 50 16.5t22 39.5h132q-11 -74 -62 -119t-142 -45zM264 431q-41 0 -63 -23.5t-25 -85.5h176q-3 62 -25 85.5
t-63 23.5zM159 570q-33 0 -56 23.5t-23 56.5t23 56.5t56 23.5q34 0 57 -23.5t23 -56.5t-23 -56.5t-57 -23.5zM361 570q-34 0 -57 23.5t-23 56.5t23 56.5t57 23.5q33 0 56 -23.5t23 -56.5t-23 -56.5t-56 -23.5z" />
    <glyph glyph-name="afii10099" unicode="&#x452;" horiz-adv-x="565" 
d="M306 -89q37 0 53.5 19t16.5 70v266q0 58 -21.5 83t-59.5 25q-42 0 -66.5 -27t-24.5 -81v-266h-135v546h-86v88h86v66h135v-66h157v-88h-157v-137q18 35 52 57.5t84 22.5q80 0 125.5 -49.5t45.5 -152.5v-287q0 -58 -9.5 -96.5t-33 -61.5t-63 -32.5t-99.5 -9.5v111z" />
    <glyph glyph-name="afii10100" unicode="&#x453;" horiz-adv-x="410" 
d="M59 530h345v-111h-210v-419h-135v530zM268 730h139l-123 -160h-105z" />
    <glyph glyph-name="afii10101" unicode="&#x454;" horiz-adv-x="515" 
d="M270 -9q-106 0 -167.5 63.5t-61.5 183.5v64q0 112 61.5 174.5t167.5 62.5q50 0 89 -14t66 -37.5t41.5 -54.5t16.5 -65h-129q-7 26 -26.5 43t-57.5 17q-42 0 -66.5 -25.5t-27.5 -83.5h160v-105h-159q4 -62 28 -87t65 -25q38 0 57 17t26 43h130q-3 -35 -18 -66.5t-42 -54.5
t-65 -36.5t-88 -13.5z" />
    <glyph glyph-name="afii10102" unicode="&#x455;" horiz-adv-x="500" 
d="M250 -9q-56 0 -95.5 12t-65 33.5t-38.5 52t-15 66.5h132q4 -25 21 -40.5t61 -15.5q48 0 65.5 13.5t17.5 35.5q0 11 -3 20t-13 17t-28 15t-49 13q-102 20 -147.5 57.5t-45.5 105.5q0 73 50 118t153 45q102 0 150.5 -45t52.5 -118h-132q-4 27 -18.5 41t-52.5 14
q-40 0 -55.5 -12.5t-15.5 -35.5q0 -21 17.5 -35.5t71.5 -24.5t91.5 -24t61 -34t33.5 -47t10 -63q0 -73 -51.5 -118.5t-162.5 -45.5z" />
    <glyph glyph-name="afii10103" unicode="&#x456;" horiz-adv-x="280" 
d="M73 530h134v-530h-134v530zM140 570q-33 0 -56.5 23.5t-23.5 56.5t23.5 56.5t56.5 23.5t56.5 -23.5t23.5 -56.5t-23.5 -56.5t-56.5 -23.5z" />
    <glyph glyph-name="afii10104" unicode="&#x457;" horiz-adv-x="280" 
d="M73 530h134v-530h-134v530zM40 570q-33 0 -56 23.5t-23 56.5t23 56.5t56 23.5q34 0 57 -23.5t23 -56.5t-23 -56.5t-57 -23.5zM242 570q-34 0 -57 23.5t-23 56.5t23 56.5t57 23.5q33 0 56 -23.5t23 -56.5t-23 -56.5t-56 -23.5z" />
    <glyph glyph-name="afii10105" unicode="&#x458;" horiz-adv-x="280" 
d="M2 -89q38 0 54.5 19t16.5 70v530h134v-530q0 -58 -9.5 -96.5t-33 -61.5t-63 -32.5t-99.5 -9.5v111zM140 570q-33 0 -56.5 23.5t-23.5 56.5t23.5 56.5t56.5 23.5t56.5 -23.5t23.5 -56.5t-23.5 -56.5t-56.5 -23.5z" />
    <glyph glyph-name="afii10106" unicode="&#x459;" horiz-adv-x="820" 
d="M16 113q26 7 42 22.5t25 39.5t12.5 57.5t3.5 76.5v221h406v-181h80q112 0 163 -46t51 -129t-51 -128.5t-163 -45.5h-215v419h-144v-110q0 -78 -11 -137.5t-36 -99.5t-65 -60.5t-98 -20.5v122zM585 111q45 0 62 15.5t17 47.5t-17 48t-62 16h-80v-127h80z" />
    <glyph glyph-name="afii10107" unicode="&#x45a;" horiz-adv-x="825" 
d="M59 530h135v-188h180v188h134v-188h82q112 0 163 -45.5t51 -125.5q0 -81 -51 -126t-163 -45h-216v230h-180v-230h-135v530zM590 111q45 0 62 15.5t17 44.5t-17 44t-62 15h-82v-119h82z" />
    <glyph glyph-name="afii10108" unicode="&#x45b;" horiz-adv-x="565" 
d="M69 546h-86v88h86v66h135v-66h157v-88h-157v-137q18 35 52 57.5t84 22.5q80 0 125.5 -49.5t45.5 -152.5v-287h-135v266q0 58 -21.5 83t-59.5 25q-42 0 -66.5 -27t-24.5 -81v-266h-135v546z" />
    <glyph glyph-name="afii10109" unicode="&#x45c;" horiz-adv-x="535" 
d="M59 530h135v-204h37l131 204h145l-166 -252l185 -278h-153l-140 214h-39v-214h-135v530zM315 730h139l-123 -160h-105z" />
    <glyph glyph-name="afii10110" unicode="&#x45e;" horiz-adv-x="530" 
d="M88 -89q25 0 44 4.5t33 14t24.5 26t18.5 40.5l-202 534h148l120 -365l107 365h143l-183 -534q-21 -63 -42.5 -101.5t-50 -59.5t-67 -28t-93.5 -7v111zM265 574q-86 0 -123.5 38t-37.5 105h109q0 -38 13 -52.5t39 -14.5t39 14.5t13 52.5h109q0 -67 -37.5 -105t-123.5 -38z
" />
    <glyph glyph-name="afii10193" unicode="&#x45f;" horiz-adv-x="560" 
d="M220 0h-161v530h135v-419h172v419h135v-530h-161v-125h-120v125z" />
    <glyph glyph-name="afii10050" unicode="&#x490;" horiz-adv-x="530" 
d="M77 700h313v130h129v-249h-299v-581h-143v700z" />
    <glyph glyph-name="afii10098" unicode="&#x491;" horiz-adv-x="410" 
d="M59 530h225v125h120v-236h-210v-419h-135v530z" />
    <glyph glyph-name="endash" unicode="&#x2013;" horiz-adv-x="500" 
d="M50 420h400v-120h-400v120z" />
    <glyph glyph-name="emdash" unicode="&#x2014;" horiz-adv-x="750" 
d="M25 380h700v-120h-700v120z" />
    <glyph glyph-name="quoteleft" unicode="&#x2018;" horiz-adv-x="300" 
d="M79 700l103 171h76l-37 -171v-142h-142v142z" />
    <glyph glyph-name="quoteright" unicode="&#x2019;" horiz-adv-x="300" 
d="M79 558v142h142v-142l-103 -171h-76z" />
    <glyph glyph-name="quotesinglbase" unicode="&#x201a;" horiz-adv-x="300" 
d="M79 0v142h142v-142l-103 -171h-76z" />
    <glyph glyph-name="quotedblleft" unicode="&#x201c;" horiz-adv-x="500" 
d="M70 700l103 171h76l-37 -171v-142h-142v142zM270 700l103 171h76l-37 -171v-142h-142v142z" />
    <glyph glyph-name="quotedblright" unicode="&#x201d;" horiz-adv-x="500" 
d="M79 558v142h142v-142l-103 -172h-76zM279 558v142h142v-142l-103 -172h-76z" />
    <glyph glyph-name="quotedblbase" unicode="&#x201e;" horiz-adv-x="500" 
d="M79 0v142h142v-142l-103 -171h-76zM279 0v142h142v-142l-103 -171h-76z" />
    <glyph glyph-name="dagger" unicode="&#x2020;" horiz-adv-x="600" 
d="M229 411h-190v119h190v170h142v-170h190v-119h-190v-611h-142v611z" />
    <glyph glyph-name="daggerdbl" unicode="&#x2021;" horiz-adv-x="600" 
d="M229 0h-190v119h190v292h-190v119h190v170h142v-170h190v-119h-190v-292h190v-119h-190v-200h-142v200z" />
    <glyph glyph-name="bullet" unicode="&#x2022;" horiz-adv-x="350" 
d="M175 195q-26 0 -48.5 10t-39.5 27t-27 39.5t-10 48.5t10 48.5t27 39.5t39.5 27t48.5 10t48.5 -10t39.5 -27t27 -39.5t10 -48.5t-10 -48.5t-27 -39.5t-39.5 -27t-48.5 -10z" />
    <glyph glyph-name="ellipsis" unicode="&#x2026;" horiz-adv-x="960" 
d="M150 -9q-38 0 -64 26t-26 64t26 64t64 26t64 -26t26 -64t-26 -64t-64 -26zM480 -9q-38 0 -64 26t-26 64t26 64t64 26t64 -26t26 -64t-26 -64t-64 -26zM810 -9q-38 0 -64 26t-26 64t26 64t64 26t64 -26t26 -64t-26 -64t-64 -26z" />
    <glyph glyph-name="perthousand" unicode="&#x2030;" horiz-adv-x="1050" 
d="M166 371q-70 0 -109.5 39.5t-39.5 109.5v40q0 70 39.5 109.5t109.5 39.5t109.5 -39.5t39.5 -109.5v-40q0 -70 -39.5 -109.5t-109.5 -39.5zM166 451q26 0 39.5 15.5t13.5 53.5v40q0 38 -13.5 53.5t-39.5 15.5t-39.5 -15.5t-13.5 -53.5v-40q0 -38 13.5 -53.5t39.5 -15.5z
M524 700h119l-467 -700h-119zM535 -8q-70 0 -109.5 39.5t-39.5 109.5v40q0 70 39.5 109.5t109.5 39.5t109.5 -39.5t39.5 -109.5v-40q0 -70 -39.5 -109.5t-109.5 -39.5zM535 72q26 0 39.5 15.5t13.5 53.5v40q0 38 -13.5 53.5t-39.5 15.5t-39.5 -15.5t-13.5 -53.5v-40
q0 -38 13.5 -53.5t39.5 -15.5zM885 -8q-70 0 -109.5 39.5t-39.5 109.5v40q0 70 39.5 109.5t109.5 39.5t109.5 -39.5t39.5 -109.5v-40q0 -70 -39.5 -109.5t-109.5 -39.5zM885 72q26 0 39.5 15.5t13.5 53.5v40q0 38 -13.5 53.5t-39.5 15.5t-39.5 -15.5t-13.5 -53.5v-40
q0 -38 13.5 -53.5t39.5 -15.5z" />
    <glyph glyph-name="guilsinglleft" unicode="&#x2039;" horiz-adv-x="330" 
d="M36 273v74l230 197v-128l-124 -103l124 -104v-133z" />
    <glyph glyph-name="guilsinglright" unicode="&#x203a;" horiz-adv-x="330" 
d="M64 204l124 103l-124 104v133l230 -197v-74l-230 -197v128z" />
    <glyph glyph-name="fraction" unicode="&#x2044;" horiz-adv-x="620" 
d="M484 700h119l-467 -700h-119z" />
    <glyph glyph-name="Euro" unicode="&#x20ac;" 
d="M303 -9q-45 0 -83 13t-67.5 40.5t-50 71t-29.5 104.5h-64v105h56v56h-56v105h63q17 115 78.5 169t152.5 54q103 0 158 -60.5t65 -169.5h-143q-7 57 -24.5 82t-55.5 25q-32 0 -55.5 -22t-32.5 -78h121v-105h-128v-56h128v-105h-120q5 -31 13 -51.5t19.5 -32.5t25 -17
t29.5 -5q37 0 54.5 26t26.5 86h143q-11 -117 -67.5 -176t-156.5 -59z" />
    <glyph glyph-name="afii61352" unicode="&#x2116;" horiz-adv-x="1000" 
d="M77 700h136l274 -468v468h136v-700h-136l-274 471v-471h-136v700zM687 300h264v-87h-264v87zM819 371q-70 0 -109.5 39.5t-39.5 109.5v40q0 70 39.5 109.5t109.5 39.5t109.5 -39.5t39.5 -109.5v-40q0 -70 -39.5 -109.5t-109.5 -39.5zM819 451q26 0 39.5 15.5t13.5 53.5
v40q0 38 -13.5 53.5t-39.5 15.5t-39.5 -15.5t-13.5 -53.5v-40q0 -38 13.5 -53.5t39.5 -15.5z" />
    <glyph glyph-name="minus" unicode="&#x2212;" 
d="M57 420h436v-120h-436v120z" />
    <glyph glyph-name="Acute" horiz-adv-x="300" 
d="M126 900h147l-126 -150h-120z" />
    <glyph glyph-name="Dieresis" horiz-adv-x="440" 
d="M110 745q-33 0 -56.5 23.5t-23.5 56.5t23.5 56.5t56.5 23.5t56.5 -23.5t23.5 -56.5t-23.5 -56.5t-56.5 -23.5zM330 745q-33 0 -56.5 23.5t-23.5 56.5t23.5 56.5t56.5 23.5t56.5 -23.5t23.5 -56.5t-23.5 -56.5t-56.5 -23.5z" />
    <glyph glyph-name="cyrBreve" horiz-adv-x="440" 
d="M220 741q-104 0 -149 41t-45 118h132q0 -37 14.5 -52.5t47.5 -15.5t48 15.5t15 52.5h131q0 -77 -45 -118t-149 -41z" />
    <glyph glyph-name="cyrbreve" horiz-adv-x="380" 
d="M190 574q-86 0 -123.5 38t-37.5 105h109q0 -38 13 -52.5t39 -14.5t39 14.5t13 52.5h109q0 -67 -37.5 -105t-123.5 -38z" />
    </font>
</defs>
</svg>
