<?xml version="1.0" standalone="no"?>
<!DOCTYPE svg PUBLIC "-//W3C//DTD SVG 1.1//EN" "http://www.w3.org/Graphics/SVG/1.1/DTD/svg11.dtd" >
<svg xmlns="http://www.w3.org/2000/svg">
<metadata></metadata>
<defs>
<font id="trivia_slab_regularregular" horiz-adv-x="1234" >
<font-face units-per-em="2048" ascent="1638" descent="-410" />
<missing-glyph horiz-adv-x="460" />
<glyph horiz-adv-x="0" />
<glyph horiz-adv-x="682" />
<glyph unicode=" "  horiz-adv-x="460" />
<glyph unicode="&#x09;" horiz-adv-x="460" />
<glyph unicode="&#xa0;" horiz-adv-x="460" />
<glyph unicode="!" horiz-adv-x="614" d="M197 1434h221l-27 -1072h-168zM215 0v184h184v-184h-184z" />
<glyph unicode="&#x22;" horiz-adv-x="755" d="M127 1434h201l-58 -390h-106zM428 1434h201l-56 -390h-108z" />
<glyph unicode="#" horiz-adv-x="1386" d="M133 391v133h215v383h-215v133h215v394h168v-394h356v394h168v-394h213v-133h-213v-383h213v-133h-213v-391h-168v391h-356v-391h-168v391h-215zM516 524h356v383h-356v-383z" />
<glyph unicode="$" horiz-adv-x="1259" d="M92 1047q0 163 122.5 277.5t352.5 127.5v166h113v-166q192 -5 430 -61v-324h-174v193q-120 29 -256 38v-481q110 -17 193 -43.5t152 -71.5t105.5 -116t36.5 -166q0 -178 -128 -299.5t-359 -138.5v-183h-113v181q-215 6 -456 67v330h172v-199q142 -37 284 -45v524 q-116 16 -197.5 40.5t-147 68.5t-98 114t-32.5 167zM283 1063q0 -57 19.5 -97.5t59.5 -66t87.5 -40t117.5 -25.5v464q-146 -10 -215 -75t-69 -160zM680 135q144 11 219.5 84t75.5 174q0 59 -21 102t-63 70.5t-91.5 44t-119.5 29.5v-504z" />
<glyph unicode="%" horiz-adv-x="1716" d="M106 1059q0 174 93 284.5t250 110.5q160 0 253 -108.5t93 -284.5q0 -174 -93 -284.5t-251 -110.5q-159 0 -252 108.5t-93 284.5zM213 0l1094 1434h198l-1093 -1434h-199zM248 1061q0 -121 54.5 -192.5t146.5 -71.5q99 0 150.5 70t51.5 194q0 122 -54 193t-148 71 q-97 0 -149 -70.5t-52 -193.5zM924 373q0 174 92.5 284.5t249.5 110.5q160 0 253 -108.5t93 -284.5q0 -174 -93 -284.5t-251 -110.5q-159 0 -251.5 108.5t-92.5 284.5zM1065 375q0 -121 54.5 -191.5t146.5 -70.5q99 0 150.5 69.5t51.5 192.5q0 122 -54 193t-148 71 q-97 0 -149 -70.5t-52 -193.5z" />
<glyph unicode="&#x26;" horiz-adv-x="1566" d="M90 414q0 140 81 254t232 159q-55 126 -55 232q0 79 26.5 148.5t78.5 125.5t140.5 88.5t203.5 32.5q212 0 391 -45v-309h-176v178q-95 25 -221 25q-133 0 -202 -71t-69 -167q0 -104 71 -232.5t181 -245.5t244 -218q67 89 109.5 200t58.5 222h-172v151h504v-151h-142 q-71 -289 -241 -502q227 -144 383 -144v-163q-99 0 -229 49.5t-265 136.5q-206 -186 -463 -186q-114 0 -205 35.5t-147.5 96.5t-86.5 137.5t-30 162.5zM264 453q0 -133 83.5 -225.5t236.5 -92.5q180 0 321 115q-300 223 -454 483q-91 -34 -139 -110.5t-48 -169.5z" />
<glyph unicode="'" horiz-adv-x="452" d="M127 1434h201l-58 -390h-106z" />
<glyph unicode="(" horiz-adv-x="733" d="M164 510q0 418 149.5 669t391.5 275v-119q-167 -22 -257 -238t-90 -587q0 -370 90 -585.5t257 -237.5v-119q-242 22 -391.5 273.5t-149.5 668.5z" />
<glyph unicode=")" horiz-adv-x="733" d="M29 -313q167 22 256.5 237.5t89.5 587.5q0 371 -90 586t-256 237v119q241 -24 390.5 -275t149.5 -667q0 -418 -150 -670t-390 -274v119z" />
<glyph unicode="*" horiz-adv-x="948" d="M115 1120l45 142l256 -95l-19 267h150l-17 -267l258 95l46 -142l-267 -61l174 -225l-118 -86l-148 237l-149 -237l-117 86l176 225z" />
<glyph unicode="+" d="M100 543v147h443v445h147v-445h445v-147h-445v-445h-147v445h-443z" />
<glyph unicode="," horiz-adv-x="485" d="M76 -252q71 35 111 102t40 150h-90v199h205v-199q0 -107 -66.5 -194t-162.5 -130z" />
<glyph unicode="-" horiz-adv-x="710" d="M115 541v149h483v-149h-483z" />
<glyph unicode="." horiz-adv-x="489" d="M141 0v201h205v-201h-205z" />
<glyph unicode="/" horiz-adv-x="987" d="M45 0l715 1434h184l-713 -1434h-186z" />
<glyph unicode="0" d="M96 717q0 350 142 543.5t378 193.5q237 0 379 -193t142 -544t-142 -544t-379 -193q-236 0 -378 193.5t-142 543.5zM293 717q0 -173 32.5 -297t106.5 -197t184 -73q164 0 245 152t81 415t-81 415t-245 152q-110 0 -184 -73t-106.5 -197t-32.5 -297z" />
<glyph unicode="1" d="M238 1159l419 275h197v-1282h236v-152h-713v152h278v1105l-342 -231z" />
<glyph unicode="2" d="M127 0v158q244 169 397 293.5t234 224t109 175t28 165.5q0 59 -14 108t-44.5 89.5t-84.5 63.5t-127 23q-144 0 -269 -36v-197h-188v317q235 70 467 70q121 0 212.5 -33.5t145.5 -93t80.5 -134.5t26.5 -165q0 -144 -67 -268t-226.5 -267.5t-452.5 -342.5h756v-150h-983z " />
<glyph unicode="3" d="M143 53v303h187v-194q132 -39 280 -39q146 0 221.5 76t75.5 192q0 136 -88 204.5t-284 68.5v143q193 0 273.5 64.5t80.5 197.5q0 113 -67.5 177.5t-213.5 64.5q-132 0 -268 -39v-195h-184v303q250 74 467 74q229 0 353 -100t124 -264q0 -158 -97.5 -246.5t-273.5 -106.5 q183 -12 285 -102.5t102 -251.5q0 -173 -138.5 -288t-363.5 -115t-471 73z" />
<glyph unicode="4" d="M109 434v152l591 848h230v-848h198v-152h-198v-284h151v-150h-495v150h155v284h-632zM283 586h458v661z" />
<glyph unicode="5" d="M156 53v305h184v-194q132 -39 268 -39q153 0 234.5 86t81.5 242q0 305 -346 305q-229 0 -410 -35l41 711h831v-328h-176v178h-489l-21 -405q141 26 275 26q228 0 361.5 -118.5t133.5 -319.5q0 -218 -138 -352.5t-370 -134.5q-214 0 -460 73z" />
<glyph unicode="6" d="M104 696q0 367 150.5 562.5t437.5 195.5q191 0 373 -43v-293h-180v172q-103 23 -197 23q-192 0 -288 -140t-101 -421q152 184 383 184q119 0 208 -38t139.5 -103.5t74.5 -144t24 -169.5q0 -102 -31.5 -191t-91.5 -159t-157.5 -110.5t-220.5 -40.5q-252 0 -387.5 188.5 t-135.5 527.5zM301 623q8 -227 92 -357.5t242 -130.5q152 0 228.5 91t76.5 243q0 68 -15.5 124.5t-49 103.5t-95 73.5t-145.5 26.5q-195 0 -334 -174z" />
<glyph unicode="7" d="M135 1069v365h971v-152l-543 -1282h-205l560 1282h-609v-213h-174z" />
<glyph unicode="8" d="M113 377q0 157 96 255.5t254 110.5q-149 27 -231 118t-82 222q0 163 121.5 267t344.5 104t346 -104.5t123 -268.5q0 -128 -81 -218.5t-232 -114.5q156 -12 252 -113t96 -258q0 -185 -131 -291t-373 -106q-241 0 -372 106.5t-131 290.5zM295 403q0 -124 82.5 -197 t238.5 -73t240 73.5t84 196.5q0 59 -17.5 105.5t-47.5 77t-72 51t-88 29t-99 8.5q-67 0 -122.5 -14.5t-101 -45t-71.5 -84.5t-26 -127zM332 1065q0 -123 77.5 -187.5t206.5 -64.5t207 64.5t78 187.5q0 107 -73.5 174.5t-211.5 67.5q-137 0 -210.5 -67.5t-73.5 -174.5z" />
<glyph unicode="9" d="M104 958q0 100 32 189t92.5 158t157 109t216.5 40q254 0 390 -184t136 -522q0 -229 -60.5 -400t-185.5 -269.5t-302 -98.5q-221 0 -428 77v299h184v-194q125 -41 246 -41q117 0 196.5 72t116.5 195.5t39 295.5q-146 -182 -379 -182q-94 0 -170.5 25.5t-128 68.5 t-86.5 102t-50.5 124t-15.5 136zM289 971q0 -68 15.5 -124t49.5 -102t95 -72t145 -26q102 0 189.5 48t148.5 128q-6 225 -90.5 350t-247.5 125q-151 0 -228 -89t-77 -238z" />
<glyph unicode=":" horiz-adv-x="489" d="M141 0v201h205v-201h-205zM141 823v201h205v-201h-205z" />
<glyph unicode=";" horiz-adv-x="489" d="M76 -252q71 35 111 102t40 150h-90v199h205v-199q0 -107 -66.5 -194t-162.5 -130zM141 823v201h205v-201h-205z" />
<glyph unicode="&#x3c;" d="M133 561v117l895 500l72 -131l-778 -429l778 -425l-72 -132z" />
<glyph unicode="=" d="M100 311v150h1035v-150h-1035zM100 772v150h1035v-150h-1035z" />
<glyph unicode="&#x3e;" horiz-adv-x="1216" d="M133 193l776 428l-776 426l72 131l895 -500v-117l-895 -500z" />
<glyph unicode="?" horiz-adv-x="1138" d="M184 1081v310q212 63 406 63q110 0 195 -28.5t136.5 -78t78 -114t26.5 -139.5q0 -78 -24.5 -145.5t-63.5 -117.5t-86.5 -96t-95 -89.5t-86.5 -88t-63.5 -101t-24.5 -120.5h-168q0 80 24 149t62 119.5t84 96.5t92 88t84 85t62 97t24 114q0 90 -67 154t-195 64 q-116 0 -219 -33v-189h-181zM406 0v184h186v-184h-186z" />
<glyph unicode="@" horiz-adv-x="1751" d="M127 391q0 172 62.5 327t173 272t274 186t354.5 69q157 0 279.5 -44.5t199.5 -123.5t116.5 -185t39.5 -233q0 -159 -54.5 -293.5t-154 -215t-223.5 -80.5q-143 0 -143 137q0 49 8 88q-47 -100 -135.5 -157.5t-204.5 -57.5q-131 0 -209 81.5t-78 217.5q0 80 18.5 161 t56.5 157t91 134.5t128 94t161 35.5q117 0 180.5 -62.5t73.5 -159.5l41 191h129l-117 -559q-10 -51 -10 -99q0 -41 13.5 -58t43.5 -17q64 0 121.5 62.5t92 168t34.5 225.5q0 221 -126.5 350.5t-377.5 129.5q-162 0 -299 -61t-228 -164t-141.5 -238t-50.5 -283 q0 -233 133 -364.5t365 -131.5q65 0 140.5 18t125.5 42l6 -119q-132 -61 -295 -61q-280 0 -447 168.5t-167 451.5zM584 401q0 -97 47.5 -150.5t138.5 -53.5q79 0 144.5 39.5t105 103t61 138t21.5 149.5q0 213 -199 213q-75 0 -137.5 -40t-101 -104.5t-59.5 -141t-21 -153.5z " />
<glyph unicode="A" horiz-adv-x="1503" d="M16 0v150h144l409 1134h-170v150h709v-150h-170l405 -1134h144v-150h-526v150h172l-103 294h-565l-105 -294h183v-150h-527zM510 590h473l-184 532q-32 109 -51 185q-21 -85 -54 -187z" />
<glyph unicode="B" horiz-adv-x="1435" d="M66 0v150h178v1134h-178v150h794q103 0 184 -28t129.5 -76t73.5 -108.5t25 -129.5q0 -134 -70.5 -223.5t-218.5 -114.5q163 -21 251.5 -121.5t88.5 -243.5q0 -80 -28.5 -150t-81.5 -123.5t-137 -84.5t-189 -31h-821zM436 150h398q151 0 222.5 72.5t71.5 187.5t-75 190.5 t-222 75.5h-395v-526zM436 809h375q71 0 123.5 20.5t82 56.5t43 78t13.5 91q0 102 -62.5 165.5t-201.5 63.5h-373v-475z" />
<glyph unicode="C" horiz-adv-x="1390" d="M96 717q0 155 45.5 288.5t131 233.5t217.5 157.5t294 57.5q235 0 498 -65v-340h-195v198q-159 39 -309 39q-155 0 -263 -74t-159 -200t-51 -295q0 -168 52 -294.5t160.5 -199.5t262.5 -73q164 0 307 38v197h195v-340q-263 -65 -502 -65q-157 0 -287 57.5t-216 157.5 t-133.5 234t-47.5 288z" />
<glyph unicode="D" horiz-adv-x="1531" d="M66 0v150h178v1134h-178v150h743q285 0 456 -192.5t171 -518.5t-167.5 -524.5t-451.5 -198.5h-751zM436 150h346q218 0 332.5 150.5t114.5 422.5q0 270 -116.5 415.5t-334.5 145.5h-342v-1134z" />
<glyph unicode="E" horiz-adv-x="1329" d="M66 0v150h178v1134h-178v150h1146v-336h-192v186h-584v-467h570v-147h-570v-520h592v194h193v-344h-1155z" />
<glyph unicode="F" horiz-adv-x="1257" d="M66 0v150h178v1134h-178v150h1134v-336h-192v186h-572v-502h568v-149h-568v-483h207v-150h-577z" />
<glyph unicode="G" horiz-adv-x="1533" d="M96 717q0 154 46 288t131.5 234t216.5 157.5t292 57.5q250 0 523 -82v-334h-195v195q-149 51 -336 51q-153 0 -260 -73t-158 -199t-51 -295q0 -263 118 -417.5t339 -154.5q176 0 287.5 120t111.5 347h-420v146h613v-758h-183v324q-21 -70 -54.5 -128t-86 -108.5 t-131.5 -79t-178 -28.5q-129 0 -243 52t-198.5 146t-133.5 233.5t-50 305.5z" />
<glyph unicode="H" horiz-adv-x="1542" d="M66 0v150h178v1134h-178v150h550v-150h-180v-465h670v465h-180v150h553v-150h-181v-1134h181v-150h-553v150h180v518h-670v-518h180v-150h-550z" />
<glyph unicode="I" horiz-adv-x="679" d="M66 0v150h178v1134h-178v150h550v-150h-180v-1134h180v-150h-550z" />
<glyph unicode="J" horiz-adv-x="1114" d="M20 346h201q8 -88 71.5 -145.5t176.5 -57.5q136 0 200 65t64 181v895h-178v150h551v-150h-180v-891q0 -191 -124 -302t-341 -111q-185 0 -307.5 105t-133.5 261z" />
<glyph unicode="K" horiz-adv-x="1394" d="M66 0v150h178v1134h-178v150h550v-150h-180v-1134h180v-150h-550zM455 741l520 543h-174v150h553v-150h-154l-520 -530l551 -604h149v-150h-559v150h180z" />
<glyph unicode="L" horiz-adv-x="1220" d="M66 0v150h178v1134h-178v150h561v-150h-191v-1134h559v235h193v-385h-1122z" />
<glyph unicode="M" horiz-adv-x="1880" d="M66 0v150h178v1134h-178v150h481l371 -1051q10 -33 32 -152q20 111 35 154l369 1049h461v-150h-179v-1134h179v-150h-543v150h178v960q0 70 4 160q-17 -78 -41 -160l-393 -1110h-162l-393 1110q-22 71 -41 160q4 -94 4 -158v-962h178v-150h-540z" />
<glyph unicode="N" horiz-adv-x="1538" d="M66 0v150h178v1134h-178v150h436l561 -1033q18 -35 57 -135q-6 67 -6 150v868h-164v150h531v-150h-178v-1284h-236l-590 1100q-11 23 -31 71.5t-24 57.5q6 -62 6 -135v-944h178v-150h-540z" />
<glyph unicode="O" horiz-adv-x="1515" d="M96 717q0 154 45.5 288t129 234t209.5 157.5t278 57.5q153 0 278.5 -57.5t208 -157.5t127.5 -234t45 -288t-45 -288t-127.5 -234t-208 -157.5t-278.5 -57.5q-152 0 -278 57.5t-209.5 157.5t-129 234t-45.5 288zM305 717q0 -258 116.5 -414t336.5 -156t336 156t116 414 t-116 413.5t-336 155.5t-336.5 -155.5t-116.5 -413.5z" />
<glyph unicode="P" horiz-adv-x="1345" d="M66 0v150h178v1134h-178v150h804q105 0 186.5 -33.5t132.5 -92.5t77 -135t26 -165q0 -94 -25.5 -172.5t-76 -140t-134.5 -96t-194 -34.5h-426v-415h197v-150h-567zM436 707h391q136 0 201.5 79.5t65.5 214.5q0 129 -63.5 205t-203.5 76h-391v-575z" />
<glyph unicode="Q" horiz-adv-x="1515" d="M96 715q0 154 45.5 288t129 234t209.5 157.5t278 57.5q153 0 278.5 -57.5t208 -157.5t127.5 -234t45 -288q0 -194 -69.5 -355t-198.5 -258l278 -348h-208l-211 269q-117 -46 -250 -46q-152 0 -278 57.5t-209.5 157.5t-129 234.5t-45.5 288.5zM305 715q0 -258 116.5 -414 t336.5 -156q74 0 139 19l-207 268h197l151 -190q85 72 128.5 194.5t43.5 278.5q0 258 -116 413.5t-336 155.5t-336.5 -155.5t-116.5 -413.5z" />
<glyph unicode="R" horiz-adv-x="1466" d="M66 0v150h178v1134h-178v150h806q107 0 188.5 -29.5t130 -81.5t73 -118t24.5 -144q0 -156 -86 -254t-244 -115q67 -8 120.5 -40.5t95.5 -95t65 -165.5t23 -241h172v-150h-557v150h190q0 473 -260 473h-371v-473h197v-150h-567zM436 770h387q139 0 201.5 72t62.5 194 q0 113 -62.5 179.5t-201.5 66.5h-387v-512z" />
<glyph unicode="S" horiz-adv-x="1294" d="M131 1049q0 83 31.5 154.5t92.5 128.5t162 89.5t230 32.5q209 0 481 -63v-324h-192v195q-168 41 -291 41q-70 0 -124.5 -13.5t-89.5 -35.5t-57.5 -53.5t-32 -65t-9.5 -72.5q0 -62 21.5 -104.5t67.5 -68.5t99 -40t135 -25q98 -11 174.5 -29t146 -50t115 -76t72.5 -110 t27 -150q0 -187 -143 -308.5t-404 -121.5q-227 0 -502 67v330h195v-201q169 -45 311 -45q169 0 253.5 75t84.5 187q0 55 -18 96t-47 67t-79 45.5t-100 30.5t-123 21q-96 12 -167.5 29.5t-134 47.5t-102 72.5t-61.5 104t-22 142.5z" />
<glyph unicode="T" horiz-adv-x="1253" d="M33 1085v349h1188v-349h-177v199h-321v-1134h178v-150h-551v150h180v1134h-323v-199h-174z" />
<glyph unicode="U" horiz-adv-x="1513" d="M41 1284v150h551v-150h-178v-850q0 -146 87.5 -219.5t254.5 -73.5q344 0 344 293v850h-180v150h550v-150h-178v-887q0 -134 -74 -230t-194 -141.5t-272 -45.5q-112 0 -208 27t-169 78t-114.5 131t-41.5 181v887h-178z" />
<glyph unicode="V" horiz-adv-x="1456" d="M20 1284v150h531v-150h-170l309 -981q18 -51 39 -139q12 55 39 139l307 981h-170v150h531v-150h-162l-418 -1284h-264l-416 1284h-156z" />
<glyph unicode="W" horiz-adv-x="2099" d="M20 1284v150h523v-150h-170l243 -950q17 -71 29 -154q11 75 33 154l278 1100h181l280 -1100q23 -99 31 -154q8 55 31 154l252 950h-175v150h523v-150h-162l-348 -1284h-238l-258 987q-15 72 -31 168q-11 -91 -30 -168l-254 -987h-238l-342 1284h-158z" />
<glyph unicode="X" horiz-adv-x="1433" d="M20 0v150h150l408 575l-398 559h-143v150h532v-150h-153l239 -356q43 -65 60 -105q15 31 65 107l236 354h-152v150h533v-150h-150l-395 -555l418 -579h143v-150h-536v150h155l-254 370q-45 67 -61 111q-27 -55 -70 -111l-246 -370h156v-150h-537z" />
<glyph unicode="Y" horiz-adv-x="1374" d="M16 1284v150h514v-150h-165l262 -397q42 -63 63 -113q15 32 68 113l264 397h-164v150h502v-150h-131l-449 -666v-468h178v-150h-550v150h178v468l-447 666h-123z" />
<glyph unicode="Z" horiz-adv-x="1277" d="M84 0v152l870 1132h-663v-186h-193v336h1084v-154l-869 -1130h695v186h192v-336h-1116z" />
<glyph unicode="[" horiz-adv-x="716" d="M199 -432v1866h438v-107h-268v-1653h268v-106h-438z" />
<glyph unicode="\" horiz-adv-x="876" d="M45 1434h184l715 -1434h-186z" />
<glyph unicode="]" horiz-adv-x="716" d="M80 -326h268v1653h-268v107h438v-1866h-438v106z" />
<glyph unicode="^" d="M133 971l483 483l484 -483l-105 -107l-379 379l-376 -377z" />
<glyph unicode="_" d="M63 -147h1106v-152h-1106v152z" />
<glyph unicode="`" horiz-adv-x="608" d="M102 1423l185 23l219 -340h-123z" />
<glyph unicode="a" horiz-adv-x="1112" d="M94 262q0 176 131.5 264t415.5 88q47 0 113 -4v119q0 178 -224 178q-114 0 -206 -14v-158h-162v287q206 22 379 22q208 0 298.5 -82t90.5 -233v-446q0 -135 111 -135q13 0 28 2v-150q-34 -4 -63 -4q-94 0 -148 37q-70 48 -84 172q-43 -108 -139.5 -165.5t-235.5 -57.5 q-142 0 -223.5 76t-81.5 204zM276 287q0 -76 47 -119t130 -43q124 0 212.5 75.5t88.5 205.5v92q-66 4 -109 4q-369 0 -369 -215z" />
<glyph unicode="b" horiz-adv-x="1228" d="M55 0v150h140v1134h-140v150h316v-643q37 112 122 182.5t214 70.5q193 0 307 -146t114 -386q0 -239 -114 -385.5t-307 -146.5q-122 0 -212 72.5t-124 178.5v-231h-316zM371 502q0 -105 29 -187t95.5 -135t163.5 -53q137 0 209 102t72 283t-72 283t-209 102 q-134 0 -211 -100t-77 -295z" />
<glyph unicode="c" horiz-adv-x="1056" d="M98 512q0 255 128.5 393.5t348.5 138.5q201 0 394 -24v-311h-170v172q-117 18 -226 18q-140 0 -218.5 -103.5t-78.5 -281.5q0 -176 77 -281.5t216 -105.5q105 0 171 55.5t83 157.5h178q-23 -164 -140 -262t-286 -98q-222 0 -349.5 145.5t-127.5 386.5z" />
<glyph unicode="d" horiz-adv-x="1226" d="M98 512q0 239 116.5 385.5t311.5 146.5q127 0 210 -70.5t120 -182.5v493h-137v150h315v-1284h137v-150h-315v231q-35 -107 -122 -179t-208 -72q-195 0 -311.5 147t-116.5 385zM283 512q0 -180 73.5 -282.5t210.5 -102.5q97 0 163.5 53t96 135.5t29.5 186.5 q0 194 -77.5 294.5t-211.5 100.5q-137 0 -210.5 -102.5t-73.5 -282.5z" />
<glyph unicode="e" horiz-adv-x="1116" d="M98 512q0 240 129 386t348 146q147 0 253 -77t155 -203q44 -112 44 -246q0 -16 -1 -33h-745q5 -173 79 -266.5t211 -93.5q99 0 164.5 50t87.5 142h185q-36 -161 -153.5 -249t-281.5 -88q-218 0 -346.5 145.5t-128.5 386.5zM285 606h553q-3 132 -76 217.5t-193 85.5 q-123 0 -195 -78t-89 -225z" />
<glyph unicode="f" horiz-adv-x="690" d="M45 874v150h158v100q0 163 84.5 246.5t238.5 83.5q71 0 148 -14v-148q-69 17 -127 17q-168 0 -168 -183v-102h295v-150h-295v-724h139v-150h-455v150h140v724h-158z" />
<glyph unicode="g" horiz-adv-x="1140" d="M104 -176q0 79 44 142t120 97q-63 21 -95 57t-32 103q0 59 37.5 113.5t91.5 83.5q-127 97 -127 266q0 163 112.5 260.5t315.5 97.5q85 0 172 -24q6 123 90.5 188.5t231.5 65.5v-152q-102 0 -153.5 -34.5t-55.5 -122.5q141 -103 141 -285q0 -158 -113 -254t-317 -96 q-115 0 -205 37q-57 -41 -57 -101q0 -98 133 -98h320q317 0 317 -258q0 -164 -128 -262.5t-390 -98.5q-233 0 -343 72.5t-110 202.5zM285 -127q0 -190 276 -190q172 0 250 63t78 162q0 135 -187 135h-256q-25 0 -57 4q-104 -57 -104 -174zM328 682q0 -101 62.5 -163 t180.5 -62q120 0 184 61t64 164q0 107 -64 169t-184 62q-119 0 -181 -61.5t-62 -169.5z" />
<glyph unicode="h" horiz-adv-x="1206" d="M55 0v150h140v1134h-140v150h316v-611q40 102 125.5 161.5t210.5 59.5q160 0 240.5 -98t80.5 -278v-518h139v-150h-446v150h129v483q0 128 -47.5 194t-157.5 66q-114 0 -194 -81.5t-80 -238.5v-423h129v-150h-445z" />
<glyph unicode="i" horiz-adv-x="565" d="M55 0v150h140v724h-140v150h316v-874h139v-150h-455zM193 1196v164h180v-164h-180z" />
<glyph unicode="j" horiz-adv-x="540" d="M33 -293q83 0 123.5 40.5t40.5 148.5v978h-140v150h316v-1137q0 -159 -100 -243t-240 -86v149zM193 1196v164h182v-164h-182z" />
<glyph unicode="k" horiz-adv-x="1060" d="M55 0v150h140v1134h-140v150h316v-1284h139v-150h-455zM373 524l346 350h-131v150h446v-150h-121l-342 -333l353 -391h116v-150h-225z" />
<glyph unicode="l" horiz-adv-x="565" d="M55 0v150h140v1134h-140v150h316v-1284h139v-150h-455z" />
<glyph unicode="m" horiz-adv-x="1816" d="M55 0v150h140v724h-140v150h316v-205q93 225 319 225q117 0 194 -69.5t99 -186.5q46 125 136.5 190.5t207.5 65.5q152 0 231.5 -98.5t79.5 -277.5v-518h140v-150h-445v150h129v479q0 264 -198 264q-107 0 -183.5 -82t-76.5 -246v-415h135v-150h-445v150h133v479 q0 127 -49 195.5t-149 68.5q-50 0 -95 -19.5t-82 -58.5t-59 -107t-22 -157v-401h129v-150h-445z" />
<glyph unicode="n" horiz-adv-x="1206" d="M55 0v150h140v724h-140v150h316v-201q40 102 125.5 161.5t212.5 59.5q159 0 239 -98t80 -278v-518h139v-150h-446v150h129v483q0 128 -47.5 194t-157.5 66q-54 0 -101.5 -19t-86.5 -57t-62 -100.5t-24 -143.5v-423h129v-150h-445z" />
<glyph unicode="o" horiz-adv-x="1134" d="M98 512q0 244 128.5 388t340.5 144t340.5 -144t128.5 -388q0 -245 -128 -388.5t-341 -143.5t-341 143.5t-128 388.5zM276 512q0 -179 77 -281t214 -102t213 101.5t76 281.5q0 178 -76 280.5t-213 102.5t-214 -102.5t-77 -280.5z" />
<glyph unicode="p" horiz-adv-x="1228" d="M55 -283h140v1157h-140v150h316v-233q37 112 122 182.5t214 70.5q193 0 307 -146t114 -386q0 -239 -114 -385.5t-307 -146.5q-122 0 -212 72.5t-124 178.5v-514h139v-149h-455v149zM371 502q0 -105 29 -187t95.5 -135t163.5 -53q137 0 211 102.5t74 282.5t-74 282.5 t-211 102.5q-134 0 -211 -100t-77 -295z" />
<glyph unicode="q" horiz-adv-x="1226" d="M98 512q0 240 114.5 386t309.5 146q127 0 212 -71t122 -182v233h315v-150h-137v-1157h137v-149h-452v149h137v514q-33 -106 -123 -178.5t-211 -72.5q-195 0 -309.5 146.5t-114.5 385.5zM285 512q0 -180 72.5 -282.5t209.5 -102.5q97 0 163.5 53t96 135.5t29.5 186.5 q0 194 -77.5 294.5t-211.5 100.5q-137 0 -209.5 -102.5t-72.5 -282.5z" />
<glyph unicode="r" horiz-adv-x="878" d="M55 0v150h140v724h-140v150h316v-225q36 109 122 177t214 68q63 0 114 -10v-334h-162v164q-28 4 -53 4q-94 0 -164.5 -90t-70.5 -231v-397h139v-150h-455z" />
<glyph unicode="s" horiz-adv-x="1032" d="M98 291h168q6 -81 76 -129.5t178 -48.5q127 0 187.5 47t60.5 114q0 31 -8.5 55.5t-26.5 41.5t-38.5 29t-52 21t-59 14t-67.5 11q-50 8 -81.5 13.5t-77 17.5t-74 25.5t-61.5 36t-51.5 50.5t-31 67.5t-12.5 88.5q0 124 108 211.5t291 87.5q178 0 363 -28v-277h-162v154 q-95 20 -195 20q-116 0 -173.5 -45t-57.5 -110q0 -32 13.5 -57t32.5 -40t54.5 -27.5t65 -19t78.5 -14.5q50 -7 85 -13t80 -17.5t75.5 -26t62.5 -37t51 -51.5t31 -69.5t12 -90.5q0 -136 -107 -225.5t-319 -89.5q-187 0 -299.5 85.5t-118.5 225.5z" />
<glyph unicode="t" horiz-adv-x="690" d="M29 874v150h159v233h177v-233h292v-150h-292v-542q0 -100 42 -148.5t130 -48.5q49 0 120 19v-154q-74 -14 -147 -14q-154 0 -238 79t-84 242v567h-159z" />
<glyph unicode="u" horiz-adv-x="1206" d="M39 874v150h317v-633q0 -128 47 -194t156 -66q114 0 192.5 79.5t84.5 238.5v425h-140v150h316v-874h139v-150h-315v201q-40 -102 -125.5 -161.5t-210.5 -59.5q-160 0 -241 98t-81 278v518h-139z" />
<glyph unicode="v" horiz-adv-x="1089" d="M14 874v150h414v-150h-121l205 -595q24 -84 35 -146q8 61 35 146l211 595h-121v150h403v-150h-110l-310 -874h-231l-301 874h-109z" />
<glyph unicode="w" horiz-adv-x="1624" d="M14 874v150h406v-150h-121l166 -581q22 -90 29 -143q13 74 30 143l205 731h170l201 -731q17 -69 30 -143q7 53 29 143l168 581h-123v150h406v-150h-111l-252 -874h-213l-190 670q-29 117 -33 155q-6 -50 -37 -155l-194 -670h-207l-250 874h-109z" />
<glyph unicode="x" horiz-adv-x="1114" d="M16 0v150h121l287 372l-270 352h-125v150h422v-150h-97q14 -19 91.5 -123t117.5 -159q90 129 207 282h-96v150h411v-150h-129l-262 -342l293 -382h111v-150h-416v150h100q-147 198 -225 307l-229 -307h104v-150h-416z" />
<glyph unicode="y" horiz-adv-x="1089" d="M14 874v150h414v-150h-121l205 -608q16 -55 35 -155q14 94 35 155l211 608h-121v150h403v-150h-110l-351 -980q-28 -85 -64 -145t-75.5 -96.5t-92 -57.5t-104 -28t-122.5 -7v157q96 2 154.5 34.5t88.5 109.5l37 100l-313 913h-109z" />
<glyph unicode="z" horiz-adv-x="970" d="M76 0v137l600 750h-422v-156h-164v293h791v-137l-588 -737h608v-150h-825z" />
<glyph unicode="{" horiz-adv-x="782" d="M123 440v142h45q154 0 154 227q0 45 -9.5 145t-9.5 146q0 59 11.5 108.5t40 95.5t73 78t114 51t158.5 19l9 -119q-72 0 -120.5 -18t-72.5 -54.5t-33.5 -79.5t-9.5 -104q0 -50 13.5 -152.5t13.5 -154.5q0 -224 -178 -256q180 -36 180 -264q0 -54 -12.5 -154.5 t-12.5 -148.5q0 -62 9 -105.5t33.5 -80.5t71.5 -55.5t118 -18.5l-9 -119q-89 0 -158.5 19t-113.5 51.5t-72 79t-39.5 96t-11.5 108.5q0 46 8.5 146t8.5 145q0 227 -154 227h-45z" />
<glyph unicode="|" horiz-adv-x="665" d="M240 -432v1866h186v-1866h-186z" />
<glyph unicode="}" horiz-adv-x="782" d="M74 -313q72 0 119.5 18t72 54.5t34 80t9.5 105.5q0 50 -13 151t-13 154q0 225 176 256q-178 36 -178 266q0 53 12 153t12 148q0 63 -9 107t-33 81t-71 55.5t-118 18.5l8 117q110 0 189.5 -28t123 -79t63 -111t19.5 -134q0 -48 -8 -148t-8 -143q0 -227 151 -227h47v-144 h-47q-151 0 -151 -227q0 -43 8 -143t8 -148q0 -74 -19 -134t-62.5 -111t-123 -79t-190.5 -28z" />
<glyph unicode="~" d="M137 1051q42 243 258 243q57 0 111.5 -18.5t97 -45t81.5 -53t80 -45t77 -18.5q60 0 94 32t49 109l111 -57q-42 -242 -258 -242q-53 0 -104 18.5t-91 45t-79 53.5t-84 45.5t-89 18.5q-60 0 -94 -33.5t-49 -110.5z" />
<glyph unicode="&#xa2;" horiz-adv-x="1157" d="M143 733q0 229 111.5 369t304.5 160v165h94v-161q155 -3 363 -27v-307h-154v174q-104 15 -209 18v-774q90 9 150.5 65.5t79.5 145.5h166q-28 -158 -134 -253.5t-262 -106.5v-191h-94v193q-195 22 -305.5 164.5t-110.5 365.5zM307 733q0 -158 66 -259.5t186 -121.5v766 q-120 -20 -186 -120.5t-66 -264.5z" />
<glyph unicode="&#xa3;" horiz-adv-x="1259" d="M72 637v100h118q-38 163 -38 273q0 85 28.5 161.5t85.5 141t155 103t224 38.5q117 0 218 -15.5t241 -47.5v-324h-168v193q-163 40 -295 40q-68 0 -121 -17.5t-84.5 -45t-51.5 -65.5t-27 -74t-7 -76q0 -106 39 -285h447v-100h-428q18 -103 18 -170q0 -85 -24.5 -160 t-84.5 -157h777v-150h-957v150q105 129 105 294q0 66 -27 193h-143z" />
<glyph unicode="&#xa5;" horiz-adv-x="1212" d="M-8 1284v150h497v-150h-143l266 -498l277 498h-141v150h481v-150h-137l-324 -547h264v-102h-325l-5 -8v-152h252v-100h-252v-225h181v-150h-551v150h178v225h-246v100h246v152l-6 8h-318v102h258l-319 547h-133z" />
<glyph unicode="&#xa8;" horiz-adv-x="729" d="M131 1196v143h137v-143h-137zM461 1196v143h137v-143h-137z" />
<glyph unicode="&#xa9;" horiz-adv-x="1697" d="M104 717q0 160 59.5 299t160.5 234.5t236.5 149.5t285.5 54q154 0 292 -55t238 -151.5t158.5 -234.5t58.5 -296q0 -160 -58.5 -298.5t-159.5 -234t-238 -150t-291 -54.5q-151 0 -287 54t-236.5 149.5t-159.5 234t-59 299.5zM254 717q0 -271 164 -447t428 -176 q177 0 313.5 81.5t208.5 222.5t72 319q0 133 -42.5 247.5t-118.5 197t-188 130t-245 47.5q-264 0 -428 -175.5t-164 -446.5zM424 721q0 221 113.5 344t304.5 123q136 0 340 -33v-254h-125v152q-113 22 -217 22q-128 0 -204.5 -97t-76.5 -257t76 -257t205 -97q97 0 217 20 v152h125v-252q-183 -33 -340 -33q-192 0 -305 129t-113 338z" />
<glyph unicode="&#xab;" horiz-adv-x="1171" d="M115 504v123l432 391l74 -78l-349 -375l349 -375l-74 -77zM551 504v123l432 391l74 -78l-348 -375l348 -375l-74 -77z" />
<glyph unicode="&#xad;" horiz-adv-x="710" d="M115 541v149h483v-149h-483z" />
<glyph unicode="&#xae;" horiz-adv-x="1048" d="M104 1040q0 183 119 298.5t297 115.5q185 0 304.5 -116t119.5 -300q0 -186 -119.5 -299.5t-304.5 -113.5q-180 0 -298 114.5t-118 300.5zM193 1038q0 -153 90 -248.5t237 -95.5q151 0 241.5 96t90.5 248q0 154 -90.5 250t-241.5 96q-139 0 -233 -92t-94 -254zM348 799 v485h219q81 0 121.5 -37t40.5 -96q0 -108 -108 -129q94 -16 94 -123v-100h-78v106q0 88 -92 88h-121v-194h-76zM424 1051h127q50 0 74 25.5t24 66.5q0 82 -98 82h-127v-174z" />
<glyph unicode="&#xb4;" horiz-adv-x="608" d="M100 1106l222 340l184 -23l-281 -317h-125z" />
<glyph unicode="&#xb8;" horiz-adv-x="716" d="M113 -391l53 61q20 -24 65.5 -38.5t96.5 -14.5q68 0 102.5 26t34.5 68q0 48 -41 78.5t-127 30.5q-21 0 -119 -13l101 193h116l-78 -123q36 8 76 8q95 0 151 -43.5t56 -115.5q0 -86 -73 -138.5t-191 -52.5q-65 0 -125 19.5t-98 54.5z" />
<glyph unicode="&#xbb;" horiz-adv-x="1171" d="M115 190l350 375l-350 375l75 78l431 -391v-123l-431 -391zM551 190l350 375l-350 375l76 78l430 -391v-123l-430 -391z" />
<glyph unicode="&#x2c6;" horiz-adv-x="843" d="M106 1122l234 310h162l235 -310l-121 -22l-194 219l-195 -219z" />
<glyph unicode="&#x2da;" horiz-adv-x="686" d="M109 1266q0 87 66.5 138.5t164.5 51.5q100 0 165.5 -51.5t65.5 -138.5q0 -88 -65.5 -139.5t-165.5 -51.5q-99 0 -165 51.5t-66 139.5zM219 1266q0 -49 34 -77t87 -28q57 0 89 27t32 76t-34.5 76.5t-86.5 27.5q-57 0 -89 -29t-32 -73z" />
<glyph unicode="&#x2dc;" horiz-adv-x="870" d="M129 1198q8 88 52.5 137t119.5 49q44 0 85.5 -19t68.5 -41t59 -41t57 -19q80 0 93 90l77 -15q-10 -90 -54.5 -139t-113.5 -49q-40 0 -79.5 19.5t-66.5 43t-62.5 43t-67.5 19.5q-81 0 -92 -96z" />
<glyph unicode="&#x401;" horiz-adv-x="1329" d="M66 0v150h178v1134h-178v150h1146v-336h-192v186h-584v-467h570v-147h-570v-520h592v194h193v-344h-1155zM446 1548v138h138v-138h-138zM793 1548v138h137v-138h-137z" />
<glyph unicode="&#x402;" horiz-adv-x="1611" d="M33 1090v344h1188v-344h-177v194h-321v-586q40 101 136.5 161.5t236.5 60.5q156 0 248 -102.5t92 -278.5v-326q0 -66 -23.5 -121.5t-62.5 -93.5t-89 -65.5t-103 -40t-105 -13.5v160q76 2 129 58t53 159v250q0 124 -54.5 193t-164.5 69q-54 0 -104.5 -19.5t-93.5 -57.5 t-69 -101.5t-26 -143.5v-296h154v-150h-527v150h180v1134h-323v-194h-174z" />
<glyph unicode="&#x403;" horiz-adv-x="1220" d="M66 0v150h178v1134h-178v150h1122v-385h-193v235h-559v-1134h191v-150h-561zM537 1485l237 307l168 -23l-289 -284h-116z" />
<glyph unicode="&#x404;" horiz-adv-x="1409" d="M96 717q0 155 45.5 288.5t131 233.5t217.5 157.5t294 57.5q240 0 514 -65v-340h-192v198q-183 39 -328 39q-208 0 -327 -126t-142 -343h604v-147h-608q11 -239 131.5 -381t339.5 -142q147 0 330 39v199h192v-340q-274 -65 -522 -65q-157 0 -287 57.5t-215 157.5 t-131.5 234t-46.5 288z" />
<glyph unicode="&#x405;" horiz-adv-x="1294" d="M131 1049q0 83 31.5 154.5t92.5 128.5t162 89.5t230 32.5q209 0 481 -63v-324h-192v195q-168 41 -291 41q-70 0 -124.5 -13.5t-89.5 -35.5t-57.5 -53.5t-32 -65t-9.5 -72.5q0 -62 21.5 -104.5t67.5 -68.5t99 -40t135 -25q98 -11 174.5 -29t146 -50t115 -76t72.5 -110 t27 -150q0 -187 -143 -308.5t-404 -121.5q-227 0 -502 67v330h195v-201q169 -45 311 -45q169 0 253.5 75t84.5 187q0 55 -18 96t-47 67t-79 45.5t-100 30.5t-123 21q-96 12 -167.5 29.5t-134 47.5t-102 72.5t-61.5 104t-22 142.5z" />
<glyph unicode="&#x406;" horiz-adv-x="679" d="M66 0v150h178v1134h-178v150h550v-150h-180v-1134h180v-150h-550z" />
<glyph unicode="&#x407;" horiz-adv-x="679" d="M66 0v150h178v1134h-178v150h550v-150h-180v-1134h180v-150h-550zM100 1548v138h138v-138h-138zM446 1548v138h138v-138h-138z" />
<glyph unicode="&#x408;" horiz-adv-x="1114" d="M20 346h201q8 -88 71.5 -145.5t176.5 -57.5q136 0 200 65t64 181v895h-178v150h551v-150h-180v-891q0 -191 -124 -302t-341 -111q-185 0 -307.5 105t-133.5 261z" />
<glyph unicode="&#x409;" horiz-adv-x="2199" d="M27 -20v182q74 0 126.5 39t90.5 123q115 253 145 960h-162v150h1170v-150h-178v-424h432q109 0 196 -35.5t140.5 -95.5t81.5 -135t28 -158q0 -87 -28 -164.5t-81 -138.5t-137.5 -97t-189.5 -36h-815v150h180v1134h-442q-26 -754 -185 -1065q-125 -239 -372 -239z M1219 150h399q143 0 213 81t70 207q0 125 -73.5 206t-215.5 81h-393v-575z" />
<glyph unicode="&#x40a;" horiz-adv-x="2183" d="M66 0v150h178v1134h-178v150h550v-150h-180v-424h621v424h-178v150h551v-150h-181v-424h387q108 0 195 -35.5t140.5 -95.5t81.5 -135t28 -158q0 -87 -28 -164.5t-81 -138.5t-137.5 -97t-189.5 -36h-766v150h178v571h-621v-571h180v-150h-550zM1249 150h353 q142 0 212 80.5t70 207.5q0 124 -73 203.5t-214 79.5h-348v-571z" />
<glyph unicode="&#x40b;" horiz-adv-x="1628" d="M33 1090v344h1188v-344h-177v194h-321v-592q40 100 130.5 160.5t217.5 60.5q162 0 251 -99t89 -277v-387h162v-150h-354v502q0 260 -213 260q-53 0 -102.5 -19.5t-90.5 -57.5t-65.5 -101.5t-24.5 -143.5v-290h170v-150h-543v150h180v1134h-323v-194h-174z" />
<glyph unicode="&#x40c;" horiz-adv-x="1394" d="M66 0v150h178v1134h-178v150h550v-150h-180v-1134h180v-150h-550zM455 741l520 543h-174v150h553v-150h-154l-520 -530l551 -604h149v-150h-559v150h180zM604 1485l238 307l168 -23l-289 -284h-117z" />
<glyph unicode="&#x40e;" horiz-adv-x="1429" d="M20 1284v150h529v-150h-160l289 -561q34 -74 47 -121q13 47 47 121l287 561h-156v150h514v-150h-151l-531 -1016q-141 -286 -424 -286q-36 0 -98 4v174q46 -8 74 -8q160 0 229 122l96 175l-436 835h-156zM451 1733h118q2 -70 38.5 -111t105.5 -41q75 0 110 41.5t37 110.5 h119q-1 -101 -77.5 -165.5t-188.5 -64.5q-110 0 -185.5 64.5t-76.5 165.5z" />
<glyph unicode="&#x40f;" horiz-adv-x="1542" d="M66 0v150h178v1134h-178v150h550v-150h-180v-1134h670v1134h-180v150h553v-150h-181v-1134h181v-150h-615l-33 -317h-120l-37 317h-608z" />
<glyph unicode="&#x410;" horiz-adv-x="1503" d="M16 0v150h144l409 1134h-170v150h709v-150h-170l405 -1134h144v-150h-526v150h172l-103 294h-565l-105 -294h183v-150h-527zM510 590h473l-184 532q-32 109 -51 185q-21 -85 -54 -187z" />
<glyph unicode="&#x411;" horiz-adv-x="1431" d="M66 0v150h178v1134h-178v150h1128v-328h-174v178h-584v-450h434q109 0 195.5 -34t140 -92t81.5 -132t28 -158q0 -178 -114.5 -298t-321.5 -120h-813zM436 150h400q144 0 213 74.5t69 197.5t-73 200.5t-214 77.5h-395v-550z" />
<glyph unicode="&#x412;" horiz-adv-x="1435" d="M66 0v150h178v1134h-178v150h794q103 0 184 -28t129.5 -76t73.5 -108.5t25 -129.5q0 -134 -70.5 -223.5t-218.5 -114.5q163 -21 251.5 -121.5t88.5 -243.5q0 -80 -28.5 -150t-81.5 -123.5t-137 -84.5t-189 -31h-821zM436 150h398q151 0 222.5 72.5t71.5 187.5t-75 190.5 t-222 75.5h-395v-526zM436 809h375q71 0 123.5 20.5t82 56.5t43 78t13.5 91q0 102 -62.5 165.5t-201.5 63.5h-373v-475z" />
<glyph unicode="&#x413;" horiz-adv-x="1220" d="M66 0v150h178v1134h-178v150h1122v-385h-193v235h-559v-1134h191v-150h-561z" />
<glyph unicode="&#x414;" horiz-adv-x="1583" d="M25 150h198q129 230 182 514.5t58 619.5h-187v150h1180v-150h-186v-1134h260l-31 -500h-170v350h-1104v-350h-170zM406 150h671v1134h-432q-7 -704 -239 -1134z" />
<glyph unicode="&#x415;" horiz-adv-x="1329" d="M66 0v150h178v1134h-178v150h1146v-336h-192v186h-584v-467h570v-147h-570v-520h592v194h193v-344h-1155z" />
<glyph unicode="&#x416;" horiz-adv-x="2037" d="M27 0v150h153l520 593l-499 541h-156v150h555v-150h-176l496 -543l-617 -741h-276zM743 0v150h179v1134h-179v150h551v-150h-180v-1134h180v-150h-551zM1116 741l496 543h-174v150h553v-150h-154l-500 -541l518 -593h156v-150h-276z" />
<glyph unicode="&#x417;" horiz-adv-x="1271" d="M125 53v303h184v-194q136 -39 309 -39q153 0 245.5 74t92.5 190q0 134 -109 205.5t-315 71.5v143q404 0 404 262q0 111 -81.5 176.5t-236.5 65.5q-164 0 -296 -39v-195h-187v303q250 74 496 74q233 0 368.5 -101t135.5 -263q0 -158 -106 -246.5t-286 -106.5 q188 -12 298 -103.5t110 -254.5q0 -175 -146.5 -287t-381.5 -112q-252 0 -498 73z" />
<glyph unicode="&#x418;" horiz-adv-x="1550" d="M66 0v150h178v1134h-178v150h550v-150h-180v-874q0 -82 -6 -150q18 46 66 135l530 889h-121v150h580v-150h-178v-1134h178v-150h-549v150h178v899q0 51 4 133q-11 -31 -63 -127l-539 -905h129v-150h-579z" />
<glyph unicode="&#x419;" horiz-adv-x="1550" d="M66 0v150h178v1134h-178v150h550v-150h-180v-874q0 -82 -6 -150q18 46 66 135l530 889h-121v150h580v-150h-178v-1134h178v-150h-549v150h178v899q0 51 4 133q-11 -31 -63 -127l-539 -905h129v-150h-579zM512 1733h119q2 -70 38.5 -111t104.5 -41q75 0 110.5 42t37.5 110 h116q0 -101 -76 -165.5t-188 -64.5q-110 0 -185.5 64.5t-76.5 165.5z" />
<glyph unicode="&#x41a;" horiz-adv-x="1394" d="M66 0v150h178v1134h-178v150h550v-150h-180v-1134h180v-150h-550zM455 741l520 543h-174v150h553v-150h-154l-520 -530l551 -604h149v-150h-559v150h180z" />
<glyph unicode="&#x41b;" horiz-adv-x="1462" d="M27 -20v182q74 0 126.5 39t90.5 123q115 253 145 960h-162v150h1170v-150h-178v-1134h178v-150h-551v150h180v1134h-442q-26 -754 -185 -1065q-125 -239 -372 -239z" />
<glyph unicode="&#x41c;" horiz-adv-x="1880" d="M66 0v150h178v1134h-178v150h481l371 -1051q10 -33 32 -152q20 111 35 154l369 1049h461v-150h-179v-1134h179v-150h-543v150h178v960q0 70 4 160q-17 -78 -41 -160l-393 -1110h-162l-393 1110q-22 71 -41 160q4 -94 4 -158v-962h178v-150h-540z" />
<glyph unicode="&#x41d;" horiz-adv-x="1542" d="M66 0v150h178v1134h-178v150h550v-150h-180v-465h670v465h-180v150h553v-150h-181v-1134h181v-150h-553v150h180v518h-670v-518h180v-150h-550z" />
<glyph unicode="&#x41e;" horiz-adv-x="1515" d="M96 717q0 154 45.5 288t129 234t209.5 157.5t278 57.5q153 0 278.5 -57.5t208 -157.5t127.5 -234t45 -288t-45 -288t-127.5 -234t-208 -157.5t-278.5 -57.5q-152 0 -278 57.5t-209.5 157.5t-129 234t-45.5 288zM305 717q0 -258 116.5 -414t336.5 -156t336 156t116 414 t-116 413.5t-336 155.5t-336.5 -155.5t-116.5 -413.5z" />
<glyph unicode="&#x41f;" horiz-adv-x="1542" d="M66 0v150h178v1134h-178v150h1413v-150h-181v-1134h181v-150h-553v150h180v1134h-670v-1134h180v-150h-550z" />
<glyph unicode="&#x420;" horiz-adv-x="1345" d="M66 0v150h178v1134h-178v150h804q105 0 186.5 -33.5t132.5 -92.5t77 -135t26 -165q0 -94 -25.5 -172.5t-76 -140t-134.5 -96t-194 -34.5h-426v-415h197v-150h-567zM436 707h391q136 0 201.5 79.5t65.5 214.5q0 129 -63.5 205t-203.5 76h-391v-575z" />
<glyph unicode="&#x421;" horiz-adv-x="1390" d="M96 717q0 155 45.5 288.5t131 233.5t217.5 157.5t294 57.5q235 0 498 -65v-340h-195v198q-159 39 -309 39q-155 0 -263 -74t-159 -200t-51 -295q0 -168 52 -294.5t160.5 -199.5t262.5 -73q164 0 307 38v197h195v-340q-263 -65 -502 -65q-157 0 -287 57.5t-216 157.5 t-133.5 234t-47.5 288z" />
<glyph unicode="&#x422;" horiz-adv-x="1253" d="M33 1085v349h1188v-349h-177v199h-321v-1134h178v-150h-551v150h180v1134h-323v-199h-174z" />
<glyph unicode="&#x423;" horiz-adv-x="1429" d="M20 1284v150h529v-150h-160l289 -561q34 -74 47 -121q13 47 47 121l287 561h-156v150h514v-150h-151l-531 -1016q-141 -286 -424 -286q-36 0 -98 4v174q46 -8 74 -8q160 0 229 122l96 175l-436 835h-156z" />
<glyph unicode="&#x424;" horiz-adv-x="1640" d="M98 725q0 197 162.5 318t462.5 133v108h-178v150h551v-150h-181v-108q300 -12 463.5 -133t163.5 -318t-163.5 -318t-463.5 -133v-124h181v-150h-551v150h178v124q-300 12 -462.5 133t-162.5 318zM324 725q0 -148 101 -231.5t298 -87.5v638q-197 -6 -298 -89.5 t-101 -229.5zM915 406q197 4 299.5 88t102.5 231q0 145 -103 229t-299 90v-638z" />
<glyph unicode="&#x425;" horiz-adv-x="1433" d="M20 0v150h150l408 575l-398 559h-143v150h532v-150h-153l239 -356q43 -65 60 -105q15 31 65 107l236 354h-152v150h533v-150h-150l-395 -555l418 -579h143v-150h-536v150h155l-254 370q-45 67 -61 111q-27 -55 -70 -111l-246 -370h156v-150h-537z" />
<glyph unicode="&#x426;" horiz-adv-x="1609" d="M66 0v150h178v1134h-178v150h550v-150h-180v-1134h668v1134h-178v150h551v-150h-179v-1134h261l-33 -500h-168v350h-1292z" />
<glyph unicode="&#x427;" horiz-adv-x="1497" d="M45 1284v150h551v-150h-180v-496q0 -107 72 -161t184 -54q55 0 109.5 14t105 44t89.5 71t62 100.5t23 127.5v354h-178v150h551v-150h-181v-1134h181v-150h-551v150h178v532q-49 -137 -175 -211t-282 -74q-106 0 -190 35t-137.5 113t-53.5 188v551h-178z" />
<glyph unicode="&#x428;" horiz-adv-x="2111" d="M66 0v150h178v1134h-178v150h548v-150h-178v-1134h522v1134h-178v150h551v-150h-178v-1134h522v1134h-178v150h551v-150h-180v-1134h180v-150h-1982z" />
<glyph unicode="&#x429;" horiz-adv-x="2181" d="M66 0v150h178v1134h-178v150h548v-150h-178v-1134h522v1134h-178v150h551v-150h-178v-1134h522v1134h-178v150h551v-150h-180v-1134h262l-33 -500h-168v350h-1863z" />
<glyph unicode="&#x42a;" horiz-adv-x="1624" d="M45 1090v344h776v-150h-178v-422h432q109 0 196 -36t141 -96t82 -135.5t28 -158.5q0 -86 -28 -164t-81.5 -139t-138 -97t-189.5 -36h-815v150h181v1134h-232v-194h-174zM643 150h399q142 0 211.5 80.5t69.5 207.5q0 125 -72.5 206t-214.5 81h-393v-575z" />
<glyph unicode="&#x42b;" horiz-adv-x="1972" d="M66 0v150h178v1134h-178v150h563v-150h-193v-424h434q108 0 195 -35.5t140.5 -95.5t81.5 -135t28 -158q0 -87 -28 -164.5t-81 -138.5t-137.5 -97t-189.5 -36h-813zM436 150h400q144 0 213 80.5t69 207.5q0 125 -73 206t-214 81h-395v-575zM1356 0v150h178v1134h-178v150 h551v-150h-178v-1134h178v-150h-551z" />
<glyph unicode="&#x42c;" horiz-adv-x="1419" d="M66 0v150h178v1134h-178v150h563v-150h-193v-424h434q108 0 195 -35.5t140.5 -95.5t81.5 -135t28 -158q0 -87 -28 -164.5t-81 -138.5t-137.5 -97t-189.5 -36h-813zM436 150h400q144 0 213 80.5t69 207.5q0 125 -73 206t-214 81h-395v-575z" />
<glyph unicode="&#x42d;" horiz-adv-x="1409" d="M111 45v340h192v-199q183 -39 330 -39q146 0 250.5 67.5t158 183.5t60.5 272h-608v147h604q-23 217 -142 343t-327 126q-143 0 -326 -39v-198h-192v340q274 65 512 65q163 0 295 -57.5t217 -157.5t130.5 -233.5t45.5 -288.5q0 -207 -79 -372.5t-235 -265t-364 -99.5 q-248 0 -522 65z" />
<glyph unicode="&#x42e;" horiz-adv-x="2101" d="M66 0v150h178v1134h-178v150h550v-150h-180v-465h271q14 135 63.5 250t129.5 201t196.5 135t255.5 49q153 0 277.5 -57.5t205.5 -157.5t124.5 -234t43.5 -288t-43.5 -288t-124.5 -234t-205.5 -157.5t-277.5 -57.5q-194 0 -338.5 89.5t-221.5 243.5t-87 355h-269v-518h180 v-150h-550zM909 717q0 -126 27 -229.5t80.5 -180t139 -118.5t196.5 -42q219 0 331.5 155t112.5 415t-112.5 414.5t-331.5 154.5t-331 -154.5t-112 -414.5z" />
<glyph unicode="&#x42f;" horiz-adv-x="1466" d="M33 0v150h172q0 268 81.5 397t221.5 145q-159 17 -244.5 109.5t-85.5 245.5q0 79 24.5 147.5t73 122.5t130.5 85.5t188 31.5h807v-150h-178v-1134h178v-150h-570v150h197v473h-369q-260 0 -260 -473h191v-150h-557zM379 1036q0 -122 62.5 -194t201.5 -72h385v514h-385 q-139 0 -201.5 -67.5t-62.5 -180.5z" />
<glyph unicode="&#x430;" horiz-adv-x="1112" d="M94 262q0 176 131.5 264t415.5 88q47 0 113 -4v119q0 178 -224 178q-114 0 -206 -14v-158h-162v287q206 22 379 22q208 0 298.5 -82t90.5 -233v-446q0 -151 139 -133v-150q-141 -15 -211.5 33t-83.5 172q-43 -108 -139.5 -165.5t-235.5 -57.5q-142 0 -223.5 76t-81.5 204 zM276 287q0 -76 47 -119t130 -43q124 0 212.5 75.5t88.5 205.5v92q-66 4 -109 4q-369 0 -369 -215z" />
<glyph unicode="&#x431;" horiz-adv-x="1148" d="M111 678q0 363 133 565.5t393 202.5h162v108h151v-260h-317q-148 0 -227.5 -97.5t-102.5 -303.5q147 131 336 131q105 0 185 -38.5t129 -107t73.5 -157t24.5 -193.5q0 -160 -49.5 -281.5t-155 -194t-256.5 -72.5q-237 0 -358 176.5t-121 521.5zM291 664q0 -269 72.5 -401 t222.5 -132q73 0 127.5 29.5t86.5 83t47 122t15 152.5q0 64 -7.5 116.5t-27 100.5t-50.5 80.5t-80.5 52t-114.5 19.5q-145 0 -289 -107q-2 -37 -2 -116z" />
<glyph unicode="&#x432;" horiz-adv-x="1087" d="M55 0v150h140v724h-140v150h588q154 0 236 -73.5t82 -176.5q0 -88 -52 -151.5t-153 -87.5q118 -18 181.5 -89t63.5 -172q0 -117 -91 -195.5t-251 -78.5h-604zM371 129h233q106 0 156.5 45t50.5 123t-52 127t-153 49h-235v-344zM371 584h219q95 0 137.5 45t42.5 116 q0 69 -42.5 110.5t-137.5 41.5h-219v-313z" />
<glyph unicode="&#x433;" horiz-adv-x="964" d="M55 0v150h140v724h-140v150h852v-338h-155v188h-381v-724h141v-150h-457z" />
<glyph unicode="&#x434;" horiz-adv-x="1253" d="M25 150h155q63 113 110.5 326t53.5 398h-131v150h915v-150h-135v-724h205l-39 -431h-149v281h-803v-281h-146zM346 150h469v724h-297q-3 -163 -55.5 -386.5t-116.5 -337.5z" />
<glyph unicode="&#x435;" horiz-adv-x="1116" d="M98 512q0 240 129 386t348 146q147 0 253 -77t155 -202.5t43 -279.5h-745q5 -173 79 -266.5t211 -93.5q99 0 164.5 50t87.5 142h185q-36 -161 -153.5 -249t-281.5 -88q-218 0 -346.5 145.5t-128.5 386.5zM285 606h553q-3 132 -76 217.5t-193 85.5q-123 0 -195 -78 t-89 -225z" />
<glyph unicode="&#x436;" horiz-adv-x="1579" d="M31 0v150h116l355 374l-357 350h-112v150h430v-150h-121l358 -362l-446 -512h-223zM567 0v150h133v874h179v-512l358 362h-121v150h430v-150h-110l-357 -350l353 -374h118v-150h-225l-446 512v-362h133v-150h-445z" />
<glyph unicode="&#x437;" horiz-adv-x="995" d="M98 29v274h160v-166q88 -26 215 -26q110 0 171 47t61 123q0 93 -70 137.5t-215 44.5v119q138 0 203 41.5t65 132.5q0 74 -55 116.5t-160 42.5q-120 0 -215 -28v-166h-160v274q198 49 387 49q193 0 295.5 -71t102.5 -195q0 -109 -75.5 -172.5t-199.5 -79.5 q134 -12 212.5 -78t78.5 -180q0 -130 -112.5 -209t-301.5 -79t-387 49z" />
<glyph unicode="&#x438;" horiz-adv-x="1204" d="M55 0v150h140v724h-140v150h307v-647q0 -79 -6 -152q28 74 58 131l395 668h340v-150h-139v-724h139v-150h-309v690q0 76 6 150q-13 -38 -58 -138l-407 -702h-326z" />
<glyph unicode="&#x439;" horiz-adv-x="1204" d="M55 0v150h140v724h-140v150h307v-647q0 -79 -6 -152q28 74 58 131l395 668h340v-150h-139v-724h139v-150h-309v690q0 76 6 150q-13 -38 -58 -138l-407 -702h-326zM356 1384h119q0 -157 133 -157t133 157h119q-1 -107 -72 -174t-180 -67q-110 0 -180.5 67t-71.5 174z" />
<glyph unicode="&#x43a;" horiz-adv-x="1079" d="M41 0v150h139v724h-139v150h451v-150h-136v-724h154v-150h-469zM367 524l358 350h-115v150h432v-150h-122l-353 -335l361 -389h129v-150h-238z" />
<glyph unicode="&#x43b;" horiz-adv-x="1179" d="M39 -8v158q107 0 170 122q54 108 84.5 283.5t34.5 318.5h-131v150h923v-150h-135v-724h139v-150h-454v150h137v724h-303q-9 -205 -51.5 -408.5t-124.5 -330.5q-52 -73 -120.5 -108t-168.5 -35z" />
<glyph unicode="&#x43c;" horiz-adv-x="1466" d="M55 0v150h140v724h-140v150h385l260 -694q23 -67 35 -135q13 56 35 135l258 694h381v-150h-137v-724h137v-150h-420v150h121v600q0 86 4 127q-18 -75 -37 -127l-278 -750h-129l-279 739q-19 55 -39 138q4 -41 4 -138v-589h121v-150h-422z" />
<glyph unicode="&#x43d;" horiz-adv-x="1189" d="M55 0v150h140v724h-140v150h316v-422h448v422h314v-150h-138v-724h138v-150h-314v455h-448v-455h-316z" />
<glyph unicode="&#x43e;" horiz-adv-x="1134" d="M98 512q0 244 128.5 388t340.5 144t340.5 -144t128.5 -388q0 -245 -128 -388.5t-341 -143.5t-341 143.5t-128 388.5zM276 512q0 -179 77 -281t214 -102t213 101.5t76 281.5q0 178 -76 280.5t-213 102.5t-214 -102.5t-77 -280.5z" />
<glyph unicode="&#x43f;" horiz-adv-x="1189" d="M55 0v150h140v724h-140v150h1078v-150h-138v-724h138v-150h-443v150h129v724h-448v-724h129v-150h-445z" />
<glyph unicode="&#x440;" horiz-adv-x="1228" d="M55 -283h140v1157h-140v150h316v-233q37 112 122 182.5t214 70.5q193 0 307 -146t114 -386q0 -239 -114 -385.5t-307 -146.5q-122 0 -212 72.5t-124 178.5v-514h139v-149h-455v149zM371 502q0 -105 29 -187t95.5 -135t163.5 -53q137 0 211 102.5t74 282.5t-74 282.5 t-211 102.5q-134 0 -211 -100t-77 -295z" />
<glyph unicode="&#x441;" horiz-adv-x="1056" d="M98 512q0 255 128.5 393.5t348.5 138.5q201 0 394 -24v-311h-170v172q-117 18 -226 18q-140 0 -218.5 -103.5t-78.5 -281.5q0 -176 77 -281.5t216 -105.5q105 0 171 55.5t83 157.5h178q-23 -164 -140 -262t-286 -98q-222 0 -349.5 145.5t-127.5 386.5z" />
<glyph unicode="&#x442;" horiz-adv-x="989" d="M20 709v315h949v-315h-148v165h-237v-724h137v-150h-453v150h138v724h-238v-165h-148z" />
<glyph unicode="&#x443;" horiz-adv-x="1089" d="M14 874v150h414v-150h-121l205 -608q16 -55 35 -155q14 94 35 155l211 608h-121v150h403v-150h-110l-351 -980q-28 -85 -64 -145t-75.5 -96.5t-92 -57.5t-104 -28t-122.5 -7v157q96 2 154.5 34.5t88.5 109.5l37 100l-313 913h-109z" />
<glyph unicode="&#x444;" horiz-adv-x="1802" d="M98 512q0 237 112.5 384.5t291.5 147.5q116 0 196 -71t115 -182v493h-137v150h313v-643q35 111 115 182t196 71q179 0 291.5 -147.5t112.5 -384.5q0 -236 -112.5 -384t-291.5 -148q-110 0 -193.5 71t-117.5 178v-512h139v-149h-452v149h137v512q-32 -107 -116.5 -178 t-194.5 -71q-179 0 -291.5 148t-112.5 384zM283 512q0 -178 69 -281.5t191 -103.5q85 0 147.5 52.5t92.5 136t30 186.5q0 191 -76 293t-194 102q-122 0 -191 -103.5t-69 -281.5zM989 502q0 -159 72.5 -267t200.5 -108q121 0 189.5 103.5t68.5 281.5t-68.5 281.5 t-189.5 103.5q-120 0 -196.5 -101.5t-76.5 -293.5z" />
<glyph unicode="&#x445;" horiz-adv-x="1114" d="M16 0v150h121l287 372l-270 352h-125v150h422v-150h-97q14 -19 91.5 -123t117.5 -159q90 129 207 282h-96v150h411v-150h-129l-262 -342l293 -382h111v-150h-416v150h100q-147 198 -225 307l-229 -307h104v-150h-416z" />
<glyph unicode="&#x446;" horiz-adv-x="1236" d="M55 0v150h140v724h-140v150h445v-150h-129v-724h448v724h-129v150h443v-150h-138v-724h195l-37 -431h-149v281h-949z" />
<glyph unicode="&#x447;" horiz-adv-x="1210" d="M45 874v150h315v-350q0 -127 47 -192.5t156 -65.5q113 0 195 79t82 224v155h-140v150h455v-150h-139v-724h139v-150h-455v150h140v346q-40 -101 -129.5 -163.5t-214.5 -62.5q-314 0 -314 371v233h-137z" />
<glyph unicode="&#x448;" horiz-adv-x="1808" d="M55 0v150h140v724h-140v150h441v-150h-125v-724h444v724h-129v150h436v-150h-131v-724h447v724h-123v150h438v-150h-137v-724h137v-150h-1698z" />
<glyph unicode="&#x449;" horiz-adv-x="1857" d="M55 0v150h140v724h-140v150h441v-150h-125v-724h444v724h-129v150h436v-150h-131v-724h447v724h-123v150h438v-150h-137v-724h194l-38 -431h-150v281h-1567z" />
<glyph unicode="&#x44a;" horiz-adv-x="1222" d="M29 725v299h647v-150h-133v-268h286q167 0 249.5 -82.5t82.5 -220.5q0 -135 -83 -219t-242 -84h-609v150h140v724h-193v-149h-145zM543 139h254q97 0 141.5 45.5t44.5 122.5q0 82 -46 130t-140 48h-254v-346z" />
<glyph unicode="&#x44b;" horiz-adv-x="1525" d="M55 0v150h140v724h-140v150h451v-150h-135v-268h286q168 0 251 -82.5t83 -220.5q0 -136 -83 -219.5t-244 -83.5h-609zM371 139h254q97 0 141.5 45.5t44.5 122.5q0 82 -46 130t-140 48h-254v-346zM1018 0v150h137v724h-137v150h452v-150h-137v-724h137v-150h-452z" />
<glyph unicode="&#x44c;" horiz-adv-x="1050" d="M55 0v150h140v724h-140v150h451v-150h-135v-268h286q168 0 251 -82.5t83 -220.5q0 -136 -83 -219.5t-244 -83.5h-609zM371 139h254q97 0 141.5 45.5t44.5 122.5q0 82 -46 130t-140 48h-254v-346z" />
<glyph unicode="&#x44d;" horiz-adv-x="1060" d="M55 330h164q42 -213 264 -213q133 0 212 95t81 253h-395v119h393q-5 150 -78 236.5t-207 86.5q-128 0 -245 -18v-162h-150v291q210 26 391 26q231 0 354.5 -137t123.5 -395q0 -239 -128.5 -385.5t-349.5 -146.5q-169 0 -284 93t-146 257z" />
<glyph unicode="&#x44e;" horiz-adv-x="1599" d="M55 0v150h140v724h-140v150h445v-150h-129v-280h211q20 208 142.5 329t313.5 121q212 0 337.5 -143.5t125.5 -388.5q0 -246 -125.5 -389t-337.5 -143q-197 0 -319 126.5t-137 346.5h-211v-303h129v-150h-445zM754 512q0 -180 73.5 -280.5t210.5 -100.5t211 100.5 t74 280.5q0 179 -74 280t-211 101t-210.5 -101t-73.5 -280z" />
<glyph unicode="&#x44f;" horiz-adv-x="1146" d="M33 0v150h127q0 100 18 171t51.5 108.5t68.5 55t81 23.5q-105 20 -162 84.5t-57 165.5q0 115 82.5 190.5t242.5 75.5h607v-150h-140v-724h140v-150h-439v150h123v292h-235q-39 0 -66 -5t-55 -22t-44.5 -48t-27 -85.5t-10.5 -131.5h121v-150h-426zM344 725 q0 -168 180 -168h252v328h-252q-95 0 -137.5 -44t-42.5 -116z" />
<glyph unicode="&#x451;" horiz-adv-x="1116" d="M98 512q0 240 129 386t348 146q147 0 253 -77t155 -202.5t43 -279.5h-745q5 -173 79 -266.5t211 -93.5q99 0 164.5 50t87.5 142h185q-36 -161 -153.5 -249t-281.5 -88q-218 0 -346.5 145.5t-128.5 386.5zM285 606h553q-3 132 -76 217.5t-193 85.5q-123 0 -195 -78 t-89 -225zM342 1196v143h137v-143h-137zM672 1196v143h137v-143h-137z" />
<glyph unicode="&#x452;" horiz-adv-x="1222" d="M55 0v150h140v993h-140v63h140v101h-140v127h316v-228h190v-63h-190v-320q40 102 125.5 161.5t210.5 59.5q160 0 240.5 -98t80.5 -278v-731q0 -82 -29 -146.5t-77.5 -103.5t-108 -59t-125.5 -21v143q77 0 119.5 42.5t42.5 144.5v696q0 128 -47.5 194t-157.5 66 q-54 0 -101.5 -19t-86.5 -57t-62 -100.5t-24 -143.5v-423h139v-150h-455z" />
<glyph unicode="&#x453;" horiz-adv-x="964" d="M55 0v150h140v724h-140v150h852v-338h-155v188h-381v-724h141v-150h-457zM362 1106l222 340l184 -23l-281 -317h-125z" />
<glyph unicode="&#x454;" horiz-adv-x="1060" d="M98 512q0 254 130.5 393t349.5 139q183 0 393 -26v-291h-150v162q-117 18 -246 18q-127 0 -202.5 -85t-89.5 -238h401v-119h-401q9 -161 86.5 -254.5t208.5 -93.5q222 0 264 213h162q-29 -164 -144.5 -257t-284.5 -93q-222 0 -349.5 145.5t-127.5 386.5z" />
<glyph unicode="&#x455;" horiz-adv-x="1032" d="M98 291h168q6 -81 76 -129.5t178 -48.5q127 0 187.5 47t60.5 114q0 31 -8.5 55.5t-26.5 41.5t-38.5 29t-52 21t-59 14t-67.5 11q-50 8 -81.5 13.5t-77 17.5t-74 25.5t-61.5 36t-51.5 50.5t-31 67.5t-12.5 88.5q0 124 108 211.5t291 87.5q178 0 363 -28v-277h-162v154 q-95 20 -195 20q-116 0 -173.5 -45t-57.5 -110q0 -32 13.5 -57t32.5 -40t54.5 -27.5t65 -19t78.5 -14.5q50 -7 85 -13t80 -17.5t75.5 -26t62.5 -37t51 -51.5t31 -69.5t12 -90.5q0 -136 -107 -225.5t-319 -89.5q-187 0 -299.5 85.5t-118.5 225.5z" />
<glyph unicode="&#x456;" horiz-adv-x="565" d="M55 0v150h140v724h-140v150h316v-874h139v-150h-455zM193 1196v164h180v-164h-180z" />
<glyph unicode="&#x457;" horiz-adv-x="557" d="M31 1196v143h137v-143h-137zM55 0v150h140v724h-140v150h307v-874h138v-150h-445zM360 1196v143h138v-143h-138z" />
<glyph unicode="&#x458;" horiz-adv-x="540" d="M33 -293q83 0 123.5 40.5t40.5 148.5v978h-140v150h316v-1137q0 -159 -100 -243t-240 -86v149zM193 1196v164h182v-164h-182z" />
<glyph unicode="&#x459;" horiz-adv-x="1671" d="M39 -8v158q105 0 170 126q54 109 84.5 282.5t34.5 315.5h-131v150h929v-150h-141v-268h295q167 0 249.5 -82.5t82.5 -220.5q0 -135 -83.5 -219t-244.5 -84h-614v150h137v724h-303q-9 -198 -52.5 -401.5t-125.5 -331.5q-108 -149 -287 -149zM985 139h262q185 0 185 168 q0 82 -45.5 130t-139.5 48h-262v-346z" />
<glyph unicode="&#x45a;" horiz-adv-x="1683" d="M55 0v150h140v724h-140v150h316v-418h456v268h-139v150h459v-150h-143v-268h286q168 0 251 -82.5t83 -220.5q0 -135 -84 -219t-244 -84h-608v150h139v335h-456v-485h-316zM1004 139h253q97 0 142 45.5t45 122.5q0 82 -46.5 130t-140.5 48h-253v-346z" />
<glyph unicode="&#x45b;" horiz-adv-x="1222" d="M55 0v150h140v993h-140v63h140v101h-140v127h316v-228h190v-63h-190v-320q40 102 125.5 161.5t210.5 59.5q160 0 240.5 -98t80.5 -278v-518h139v-150h-446v150h129v483q0 128 -47.5 194t-157.5 66q-114 0 -194 -81.5t-80 -238.5v-423h129v-150h-445z" />
<glyph unicode="&#x45c;" horiz-adv-x="1079" d="M41 0v150h139v724h-139v150h451v-150h-136v-724h154v-150h-469zM367 524l358 350h-115v150h432v-150h-122l-353 -335l361 -389h129v-150h-238zM420 1106l221 340l184 -23l-280 -317h-125z" />
<glyph unicode="&#x45e;" horiz-adv-x="1089" d="M14 874v150h414v-150h-121l205 -608q16 -55 35 -155q14 94 35 155l211 608h-121v150h403v-150h-110l-351 -980q-28 -85 -64 -145t-75.5 -96.5t-92 -57.5t-104 -28t-122.5 -7v157q96 2 154.5 34.5t88.5 109.5l37 100l-313 913h-109zM303 1384h119q0 -157 133 -157t133 157 h119q-1 -107 -72 -174t-180 -67q-111 0 -181.5 67t-70.5 174z" />
<glyph unicode="&#x45f;" horiz-adv-x="1189" d="M55 0v150h140v724h-140v150h445v-150h-129v-724h448v724h-129v150h443v-150h-138v-724h138v-150h-453l-25 -293h-120l-27 293h-453z" />
<glyph unicode="&#x490;" horiz-adv-x="1220" d="M66 0v150h178v1134h-178v150h929v235h193v-385h-752v-1134h191v-150h-561z" />
<glyph unicode="&#x491;" horiz-adv-x="964" d="M55 0v150h140v724h-140v150h697v188h155v-338h-536v-724h141v-150h-457z" />
<glyph unicode="&#x2000;" horiz-adv-x="896" />
<glyph unicode="&#x2001;" horiz-adv-x="1792" />
<glyph unicode="&#x2002;" horiz-adv-x="896" />
<glyph unicode="&#x2003;" horiz-adv-x="1792" />
<glyph unicode="&#x2004;" horiz-adv-x="597" />
<glyph unicode="&#x2005;" horiz-adv-x="448" />
<glyph unicode="&#x2006;" horiz-adv-x="298" />
<glyph unicode="&#x2007;" horiz-adv-x="298" />
<glyph unicode="&#x2008;" horiz-adv-x="224" />
<glyph unicode="&#x2009;" horiz-adv-x="358" />
<glyph unicode="&#x200a;" horiz-adv-x="99" />
<glyph unicode="&#x2010;" horiz-adv-x="710" d="M115 541v149h483v-149h-483z" />
<glyph unicode="&#x2011;" horiz-adv-x="710" d="M115 541v149h483v-149h-483z" />
<glyph unicode="&#x2012;" horiz-adv-x="710" d="M115 541v149h483v-149h-483z" />
<glyph unicode="&#x2013;" horiz-adv-x="1339" d="M117 541v149h1106v-149h-1106z" />
<glyph unicode="&#x2014;" horiz-adv-x="2080" d="M117 541v149h1847v-149h-1847z" />
<glyph unicode="&#x2018;" horiz-adv-x="485" d="M152 1008v184q0 107 65 194.5t160 129.5l39 -72q-72 -35 -114 -102t-42 -150h80v-184h-188z" />
<glyph unicode="&#x2019;" horiz-adv-x="485" d="M72 997q71 34 112 101.5t41 150.5h-78v185h187v-185q0 -107 -65 -194t-160 -129z" />
<glyph unicode="&#x201a;" horiz-adv-x="485" d="M72 -252q71 36 112 102.5t41 149.5h-80v184h189v-184q0 -107 -65 -194.5t-160 -129.5z" />
<glyph unicode="&#x201c;" horiz-adv-x="794" d="M152 1008v184q0 107 65 194.5t160 129.5l37 -72q-72 -35 -114 -102t-42 -150h80v-184h-186zM461 1008v184q0 107 65 194.5t160 129.5l37 -72q-72 -35 -113 -102t-41 -150h78v-184h-186z" />
<glyph unicode="&#x201d;" horiz-adv-x="794" d="M72 997q71 34 112 101.5t41 150.5h-80v185h189v-185q0 -107 -65 -194t-160 -129zM381 997q71 34 112.5 101.5t41.5 150.5h-78v185h186v-185q0 -107 -65 -194t-160 -129z" />
<glyph unicode="&#x201e;" horiz-adv-x="794" d="M72 -252q71 36 112 102.5t41 149.5h-80v184h189v-184q0 -107 -65 -194.5t-160 -129.5zM381 -252q71 36 112.5 103t41.5 149h-78v184h186v-184q0 -107 -65 -194.5t-160 -129.5z" />
<glyph unicode="&#x2022;" horiz-adv-x="827" d="M119 555q0 124 86 210.5t209 86.5t209 -86.5t86 -210.5q0 -123 -86 -209t-209 -86t-209 86t-86 209z" />
<glyph unicode="&#x2026;" horiz-adv-x="1873" d="M254 0v201h205v-201h-205zM834 0v201h204v-201h-204zM1413 0v201h205v-201h-205z" />
<glyph unicode="&#x202f;" horiz-adv-x="358" />
<glyph unicode="&#x2039;" horiz-adv-x="735" d="M115 504v123l432 391l74 -78l-349 -375l349 -375l-74 -77z" />
<glyph unicode="&#x203a;" horiz-adv-x="735" d="M115 190l350 375l-350 375l75 78l431 -391v-123l-431 -391z" />
<glyph unicode="&#x205f;" horiz-adv-x="448" />
<glyph unicode="&#x20ac;" horiz-adv-x="1329" d="M23 479l36 101h103q-8 57 -8 137q0 34 4 108h-135l36 101h113q21 116 67 211.5t116 166.5t169 110.5t219 39.5q227 0 478 -65v-314h-179v172q-166 37 -305 37q-307 0 -368 -358h553l-37 -101h-527q-4 -70 -4 -108q0 -73 6 -137h400l-37 -101h-348q67 -329 360 -329 q137 0 299 36v172h178v-313q-251 -65 -477 -65q-222 0 -365 135.5t-192 363.5h-155z" />
<glyph unicode="&#x2122;" horiz-adv-x="1589" d="M96 1339v95h778l193 -516l190 516h170v-678h-112v542l-201 -542h-96l-203 542v-542h-110v583h-256v-583h-117v583h-236z" />
<glyph unicode="&#x25fc;" horiz-adv-x="1024" d="M0 0v1024h1024v-1024h-1024z" />
</font>
</defs>
</svg>
