<?xml version="1.0" standalone="no"?>
<!DOCTYPE svg PUBLIC "-//W3C//DTD SVG 1.1//EN" "http://www.w3.org/Graphics/SVG/1.1/DTD/svg11.dtd" >
<svg xmlns="http://www.w3.org/2000/svg">
<metadata></metadata>
<defs>
<font id="trivia_slab_mediumregular" horiz-adv-x="1243" >
<font-face units-per-em="2048" ascent="1638" descent="-410" />
<missing-glyph horiz-adv-x="450" />
<glyph horiz-adv-x="2048" />
<glyph horiz-adv-x="2048" />
<glyph unicode="&#xd;" horiz-adv-x="2048" />
<glyph unicode=" "  horiz-adv-x="450" />
<glyph unicode="&#x09;" horiz-adv-x="450" />
<glyph unicode="&#xa0;" horiz-adv-x="450" />
<glyph unicode="!" horiz-adv-x="661" d="M193 1434h276l-31 -1053h-213zM217 0v227h227v-227h-227z" />
<glyph unicode="&#x22;" horiz-adv-x="831" d="M121 1434h250l-68 -396h-139zM461 1434h250l-68 -396h-137z" />
<glyph unicode="#" horiz-adv-x="1400" d="M137 377v168h197v342h-197v168h197v379h213v-379h309v379h211v-379h197v-168h-197v-342h197v-168h-197v-377h-211v377h-309v-377h-213v377h-197zM547 545h309v342h-309v-342z" />
<glyph unicode="$" horiz-adv-x="1261" d="M74 1030q0 168 124.5 286t356.5 136v160h137v-160q192 -5 434 -57v-355h-219v185q-116 23 -215 28v-417q114 -15 201 -43.5t155.5 -74.5t105 -117.5t36.5 -164.5q0 -186 -132 -310t-366 -142v-177h-137v175q-197 5 -459 61v360h219v-190q115 -29 240 -35v451 q-245 34 -363 123.5t-118 277.5zM315 1051q0 -88 59 -131.5t181 -65.5v399q-123 -10 -181.5 -66t-58.5 -136zM692 180q122 13 186 74t64 145q0 94 -62 139.5t-188 69.5v-428z" />
<glyph unicode="%" horiz-adv-x="1771" d="M100 1051q0 179 95 291t256 112t256.5 -109.5t95.5 -289.5q0 -178 -95 -290t-255 -112q-163 0 -258 109.5t-95 288.5zM205 0l1112 1434h250l-1110 -1434h-252zM279 1055q0 -109 46.5 -170.5t125.5 -61.5q84 0 128 59.5t44 172.5q0 111 -46 172t-126 61 q-83 0 -127.5 -59.5t-44.5 -173.5zM969 379q0 178 95 289.5t255 111.5q163 0 257.5 -109t94.5 -288q0 -180 -94.5 -291.5t-255.5 -111.5t-256.5 109.5t-95.5 289.5zM1147 383q0 -111 46.5 -172t125.5 -61q84 0 128 60t44 171t-46 172t-126 61q-83 0 -127.5 -59.5 t-44.5 -171.5z" />
<glyph unicode="&#x26;" horiz-adv-x="1560" d="M78 410q0 139 80 254t225 159q-51 117 -51 226q0 84 27.5 155.5t82 128t146.5 89t213 32.5q220 0 409 -47v-332h-223v164q-87 21 -192 21q-119 0 -181.5 -60t-62.5 -143q0 -139 131.5 -317.5t325.5 -323.5q102 146 135 336h-156v192h524v-192h-129q-66 -236 -225 -439 q206 -120 354 -120v-211q-103 0 -233.5 48t-265.5 134q-215 -182 -463 -182q-114 0 -205.5 35.5t-148.5 95.5t-87 136t-30 161zM301 463q0 -120 73.5 -201.5t207.5 -81.5q151 0 278 86q-272 207 -414 439q-70 -33 -107.5 -99t-37.5 -143z" />
<glyph unicode="'" horiz-adv-x="491" d="M121 1436h250l-68 -398h-139z" />
<glyph unicode="(" horiz-adv-x="753" d="M156 510q0 214 42.5 389.5t118.5 293.5t179 185t225 76v-151q-150 -15 -231.5 -218.5t-81.5 -574.5t81.5 -573.5t231.5 -217.5v-151q-250 18 -407.5 267.5t-157.5 674.5z" />
<glyph unicode=")" horiz-adv-x="753" d="M33 -281q150 15 231.5 218.5t81.5 574.5t-81.5 573.5t-231.5 217.5v151q121 -9 224 -76t178.5 -184.5t118 -292.5t42.5 -389q0 -426 -157 -676t-406 -268v151z" />
<glyph unicode="*" horiz-adv-x="989" d="M111 1094l57 172l250 -92l-19 260h185l-17 -260l256 92l56 -172l-263 -64l170 -221l-147 -107l-141 232l-150 -232l-145 107l176 221z" />
<glyph unicode="+" d="M100 539v190h426v426h191v-426h426v-190h-426v-426h-191v426h-426z" />
<glyph unicode="," horiz-adv-x="505" d="M70 -252q75 34 118 101t43 151h-106v242h250v-242q0 -115 -75.5 -207t-182.5 -135z" />
<glyph unicode="-" horiz-adv-x="720" d="M111 537v192h499v-192h-499z" />
<glyph unicode="." horiz-adv-x="507" d="M129 0v246h250v-246h-250z" />
<glyph unicode="/" horiz-adv-x="1021" d="M39 0l709 1434h235l-707 -1434h-237z" />
<glyph unicode="0" d="M84 717q0 180 40.5 322t113.5 232t170.5 136.5t214.5 46.5q116 0 213.5 -46.5t169.5 -136.5t112.5 -232t40.5 -322t-40.5 -322t-112.5 -232t-169.5 -136.5t-213.5 -46.5q-117 0 -214.5 46.5t-170.5 136.5t-113.5 232t-40.5 322zM336 717q0 -518 287 -518q284 0 284 518 t-284 518q-287 0 -287 -518z" />
<glyph unicode="1" d="M205 1167l422 267h250v-1239h227v-195h-754v195h273v1013l-324 -211z" />
<glyph unicode="2" d="M123 0v203q186 126 316 226t212 178t127 148t61.5 126t16.5 123q0 115 -53.5 184t-175.5 69q-120 0 -230 -30v-187h-241v344q252 70 485 70q124 0 217.5 -33.5t150 -93t84 -136.5t27.5 -169q0 -108 -35.5 -199.5t-121.5 -191t-216 -201.5t-333 -237h710v-193h-1001z" />
<glyph unicode="3" d="M125 53v326h235v-186q124 -31 252 -31q127 0 192.5 66t65.5 171q0 124 -78 185t-266 61v178q126 0 199 28.5t100 78t27 129.5q0 100 -58 156.5t-184 56.5q-114 0 -235 -31v-186h-236v325q253 74 490 74q236 0 364.5 -102t128.5 -267q0 -153 -94.5 -240t-269.5 -108 q184 -14 283.5 -102t99.5 -244q0 -182 -145.5 -296.5t-379.5 -114.5q-241 0 -491 73z" />
<glyph unicode="4" d="M94 422v194l574 818h293v-820h194v-192h-194v-229h147v-193h-541v193h152v229h-625zM317 614h402v582z" />
<glyph unicode="5" d="M141 53v332h236v-186q125 -33 231 -33q137 0 210 73t73 216q0 135 -74.5 204.5t-241.5 69.5q-223 0 -423 -37l45 742h864v-353h-223v160h-428l-17 -348q129 25 252 25q224 0 363 -120t139 -327q0 -221 -144 -356t-382 -135q-230 0 -480 73z" />
<glyph unicode="6" d="M94 696q0 362 153 560t443 198q193 0 402 -43v-317h-234v159q-85 19 -172 19q-170 0 -253.5 -124t-88.5 -378q142 170 361 170q118 0 206 -38t138 -103t74 -143t24 -167q0 -101 -32 -191t-93.5 -162t-162 -114t-228.5 -42q-259 0 -398 187.5t-139 528.5zM346 608 q8 -203 81 -316.5t216 -113.5q134 0 198 79t64 214q0 293 -264 293q-93 0 -163.5 -40t-131.5 -116z" />
<glyph unicode="7" d="M131 1028v406h987v-195l-520 -1239h-264l540 1239h-522v-211h-221z" />
<glyph unicode="8" d="M106 379q0 154 92 251t246 111q-142 26 -223.5 116.5t-81.5 217.5q0 167 126.5 273t357.5 106q229 0 355 -107t126 -272q0 -128 -78.5 -215.5t-226.5 -111.5q152 -15 245 -115t93 -254q0 -187 -132.5 -293t-381.5 -106q-250 0 -383.5 106t-133.5 293zM338 414 q0 -110 72.5 -174t212.5 -64q137 0 209.5 64.5t72.5 173.5q0 124 -78.5 180.5t-203.5 56.5q-128 0 -206.5 -56.5t-78.5 -180.5zM373 1051q0 -112 66.5 -168t183.5 -56q113 0 180 56t67 168q0 96 -62.5 154.5t-184.5 58.5q-123 0 -186.5 -58.5t-63.5 -154.5z" />
<glyph unicode="9" d="M94 952q0 100 32.5 189.5t94.5 159.5t161.5 111.5t223.5 41.5q261 0 402 -182t141 -520q0 -229 -63.5 -401.5t-193.5 -271.5t-312 -99q-228 0 -441 77v322h236v-184q100 -35 207 -35q158 0 235 133t82 375q-140 -168 -354 -168q-115 0 -203.5 38t-141.5 102.5 t-79.5 143.5t-26.5 168zM330 969q0 -285 264 -285q182 0 301 156q-13 415 -301 415q-132 0 -198 -76.5t-66 -209.5z" />
<glyph unicode=":" horiz-adv-x="507" d="M129 0v246h250v-246h-250zM129 778v246h250v-246h-250z" />
<glyph unicode=";" horiz-adv-x="507" d="M70 -252q75 34 118 101t43 151h-106v242h250v-242q0 -115 -75.5 -207t-182.5 -135zM129 778v246h250v-246h-250z" />
<glyph unicode="&#x3c;" d="M125 563v150l899 499l92 -165l-745 -410l745 -408l-92 -166z" />
<glyph unicode="=" d="M100 299v190h1043v-190h-1043zM100 778v191h1043v-191h-1043z" />
<glyph unicode="&#x3e;" horiz-adv-x="1220" d="M125 229l745 410l-745 408l92 165l899 -499v-150l-899 -500z" />
<glyph unicode="?" horiz-adv-x="1161" d="M178 1057v332q233 65 426 65q220 0 333.5 -103.5t113.5 -267.5q0 -75 -24 -141.5t-62.5 -116t-85 -94.5t-92.5 -86.5t-84.5 -83t-62.5 -92.5t-24 -107h-215q0 76 23 142.5t60 115.5t81.5 93.5t89 85t81.5 81t60 90t23 103.5q0 80 -58 133.5t-167 53.5q-89 0 -184 -29 v-174h-232zM395 0v227h228v-227h-228z" />
<glyph unicode="@" horiz-adv-x="1765" d="M121 397q0 133 38 258t113.5 232t179.5 187.5t244 126.5t299 46q162 0 288 -45t204 -125t118 -184.5t40 -228.5q0 -158 -56.5 -292.5t-163 -217t-239.5 -82.5q-156 0 -156 135q0 41 6 74q-46 -94 -128.5 -144.5t-188.5 -50.5q-129 0 -208 80t-79 217q0 78 18 157.5 t56 154t90 132t126 92.5t159 35q106 0 166 -54t73 -140l37 160h162l-113 -541q-8 -44 -8 -82q0 -64 51 -64q88 0 154.5 127t66.5 295q0 98 -27.5 178t-84 141t-150.5 94.5t-219 33.5q-130 0 -242 -39t-192.5 -106.5t-138.5 -157.5t-86.5 -194t-28.5 -214q0 -215 122 -340 t345 -125q111 0 227 47l6 -153q-122 -49 -260 -49q-287 0 -453.5 173t-166.5 453zM627 412q0 -85 40.5 -130.5t118.5 -45.5q91 0 159.5 59t100 143t31.5 174q0 189 -172 189q-67 0 -122 -36t-88 -93.5t-50.5 -125t-17.5 -134.5z" />
<glyph unicode="A" horiz-adv-x="1517" d="M14 0v193h142l368 1048h-162v193h799v-193h-166l367 -1048h141v-193h-569v193h160l-80 237h-520l-82 -237h172v-193h-570zM551 618h403l-153 467q-27 81 -47 185q-22 -99 -47 -185z" />
<glyph unicode="B" horiz-adv-x="1435" d="M59 0v193h168v1048h-168v193h807q207 0 315.5 -98t108.5 -246q0 -281 -291 -336q164 -21 251 -120t87 -243q0 -169 -117.5 -280t-326.5 -111h-834zM475 193h344q140 0 205.5 62.5t65.5 166.5t-68 169.5t-203 65.5h-344v-464zM475 827h324q125 0 180 58.5t55 154.5 q0 201 -235 201h-324v-414z" />
<glyph unicode="C" horiz-adv-x="1406" d="M88 717q0 156 46.5 290t133 233.5t220 156.5t298.5 57q252 0 514 -63v-375h-247v190q-145 31 -275 31q-106 0 -187.5 -38t-133 -108t-77.5 -164t-26 -210q0 -237 108.5 -377.5t315.5 -140.5q149 0 275 30v189h247v-375q-276 -63 -522 -63q-126 0 -236 36.5t-192.5 103.5 t-141.5 158.5t-89.5 203t-30.5 235.5z" />
<glyph unicode="D" horiz-adv-x="1533" d="M59 0v193h168v1048h-168v193h754q287 0 460 -192t173 -519q0 -329 -169 -526t-452 -197h-766zM475 193h303q199 0 301.5 133t102.5 393t-105.5 391t-306.5 131h-295v-1048z" />
<glyph unicode="E" horiz-adv-x="1329" d="M59 0v193h168v1048h-168v193h1162v-365h-248v172h-498v-403h543v-191h-543v-454h508v184h248v-377h-1172z" />
<glyph unicode="F" horiz-adv-x="1257" d="M59 0v193h168v1048h-168v193h1151v-365h-247v172h-488v-444h541v-191h-541v-413h197v-193h-613z" />
<glyph unicode="G" horiz-adv-x="1540" d="M88 717q0 156 47 290t134 233.5t219.5 156.5t295.5 57q258 0 533 -76v-372h-248v190q-127 39 -295 39q-208 0 -314 -140t-106 -378q0 -247 103.5 -385.5t304.5 -138.5q162 0 260.5 103t99.5 294h-381v186h627v-776h-233v287q-100 -307 -428 -307q-97 0 -188 31t-169 93 t-136.5 149t-92 206.5t-33.5 257.5z" />
<glyph unicode="H" horiz-adv-x="1550" d="M59 0v193h168v1048h-168v193h586v-193h-170v-401h598v401h-170v193h588v-193h-170v-1048h170v-193h-588v193h170v452h-598v-452h170v-193h-586z" />
<glyph unicode="I" horiz-adv-x="704" d="M59 0v193h168v1048h-168v193h586v-193h-170v-1048h170v-193h-586z" />
<glyph unicode="J" horiz-adv-x="1157" d="M4 381h256q7 -82 62 -136.5t161 -54.5q127 0 185.5 57.5t58.5 170.5v823h-170v193h588v-193h-170v-821q0 -203 -135.5 -321.5t-366.5 -118.5q-197 0 -329 115.5t-140 285.5z" />
<glyph unicode="K" horiz-adv-x="1425" d="M59 0v193h168v1048h-168v193h586v-193h-170v-1048h170v-193h-586zM489 735l461 506h-157v193h591v-193h-147l-461 -491l490 -557h143v-193h-600v193h166z" />
<glyph unicode="L" horiz-adv-x="1230" d="M59 0v193h168v1048h-168v193h598v-193h-182v-1048h479v225h248v-418h-1143z" />
<glyph unicode="M" horiz-adv-x="1908" d="M59 0v193h168v1048h-168v193h557l318 -963q19 -61 33 -170q22 135 34 170l318 963h530v-193h-168v-1048h168v-193h-577v193h170v843q0 106 6 183q-13 -67 -45 -183l-348 -1036h-203l-350 1036q-6 23 -14 55.5t-16.5 72t-12.5 55.5q6 -76 6 -183v-843h170v-193h-576z" />
<glyph unicode="N" horiz-adv-x="1544" d="M59 0v193h168v1048h-168v193h496l483 -949q9 -18 56 -145q-9 101 -9 156v745h-147v193h559v-193h-170v-1241h-301l-518 1030q-24 53 -49 137q4 -82 4 -141v-833h170v-193h-574z" />
<glyph unicode="O" horiz-adv-x="1517" d="M88 717q0 155 46.5 289.5t131.5 234t212.5 156.5t281.5 57q153 0 280.5 -57t212 -156.5t131 -234t46.5 -289.5t-46.5 -289.5t-131 -234t-212 -156.5t-280.5 -57q-154 0 -281.5 57t-212.5 156.5t-131.5 234t-46.5 289.5zM354 717q0 -238 103 -379t303 -141q199 0 301 141 t102 379t-102 379t-301 141q-200 0 -303 -141t-103 -379z" />
<glyph unicode="P" horiz-adv-x="1359" d="M59 0v193h168v1048h-168v193h818q105 0 189 -35t137 -96t80.5 -140.5t27.5 -171.5q0 -96 -27 -177t-81 -143.5t-141 -98t-200 -35.5h-387v-344h184v-193h-600zM475 715h340q124 0 183 72.5t59 197.5q0 254 -242 254h-340v-524z" />
<glyph unicode="Q" horiz-adv-x="1517" d="M88 715q0 155 46.5 289.5t131.5 234t212.5 156.5t281.5 57q153 0 280.5 -57t212 -156.5t131 -234t46.5 -289.5q0 -185 -65 -339.5t-185 -254.5l272 -352h-264l-189 249q-109 -41 -239 -41q-154 0 -281.5 57t-212.5 156.5t-131.5 234.5t-46.5 290zM354 715 q0 -238 103 -379t303 -141q48 0 100 10l-180 241h248l108 -141q127 139 127 410q0 238 -102 379t-301 141q-200 0 -303 -141t-103 -379z" />
<glyph unicode="R" horiz-adv-x="1474" d="M59 0v193h168v1048h-168v193h824q109 0 192 -29t133.5 -81.5t75.5 -120t25 -148.5q0 -155 -87.5 -251.5t-248.5 -111.5q146 -18 230.5 -138t84.5 -361h158v-193h-586v193h180q0 203 -60 304t-187 101h-318v-405h184v-193h-600zM475 788h340q238 0 238 234q0 217 -238 217 h-340v-451z" />
<glyph unicode="S" horiz-adv-x="1325" d="M125 1032q0 88 33.5 163t98 133.5t169 92t238.5 33.5q217 0 497 -59v-355h-248v187q-147 35 -254 35q-148 0 -212 -58.5t-64 -150.5q0 -102 69.5 -145.5t227.5 -63.5q128 -13 223.5 -40.5t170 -76t113 -125t38.5 -180.5q0 -94 -37 -174.5t-107 -140t-179 -93.5t-245 -34 q-219 0 -518 63v360h248v-192q160 -39 277 -39q153 0 226 64t73 163q0 47 -15 82t-40 58t-69 40t-90.5 26.5t-115.5 19.5q-130 16 -219.5 42.5t-157 73t-99.5 118.5t-32 173z" />
<glyph unicode="T" horiz-adv-x="1290" d="M29 1053v381h1233v-381h-224v188h-268v-1048h168v-193h-588v193h172v1048h-270v-188h-223z" />
<glyph unicode="U" horiz-adv-x="1523" d="M35 1241v193h586v-193h-170v-772q0 -145 76.5 -214t234.5 -69q160 0 235.5 69t75.5 214v772h-170v193h586v-193h-170v-819q0 -108 -45 -194t-123 -139t-178 -81t-215 -28t-214.5 28t-176 81.5t-120.5 139t-44 193.5v819h-168z" />
<glyph unicode="V" horiz-adv-x="1476" d="M20 1241v193h568v-193h-158l272 -887q27 -93 37 -141q13 61 39 141l271 887h-160v193h567v-193h-153l-400 -1241h-338l-397 1241h-148z" />
<glyph unicode="W" horiz-adv-x="2111" d="M20 1241v193h555v-193h-157l209 -848q15 -62 28 -157q6 59 29 157l254 1041h225l258 -1041q17 -71 29 -157q12 86 29 157l217 848h-162v193h557v-193h-156l-331 -1241h-306l-223 893q-19 78 -26 170q-11 -96 -29 -170l-223 -893h-303l-326 1241h-148z" />
<glyph unicode="X" horiz-adv-x="1449" d="M20 0v193h138l387 530l-379 518h-129v193h569v-193h-137l188 -280q42 -58 66 -113q24 52 70 115l186 278h-135v193h569v-193h-137l-375 -512l395 -536h134v-193h-576v193h137l-200 292q-51 74 -66 115q-29 -56 -74 -117l-194 -290h137v-193h-574z" />
<glyph unicode="Y" horiz-adv-x="1370" d="M14 1241v193h551v-193h-153l213 -321q45 -64 67 -119q25 56 72 121l211 319h-152v193h533v-193h-119l-432 -641v-407h170v-193h-586v193h170v407l-434 641h-111z" />
<glyph unicode="Z" horiz-adv-x="1284" d="M84 0v195l817 1046h-561v-172h-248v365h1104v-195l-817 -1046h582v172h247v-365h-1124z" />
<glyph unicode="[" horiz-adv-x="733" d="M190 -432v1866h480v-138h-264v-1593h264v-135h-480z" />
<glyph unicode="\" horiz-adv-x="937" d="M39 1434h235l709 -1434h-238z" />
<glyph unicode="]" horiz-adv-x="733" d="M63 -297h265v1593h-265v138h482v-1866h-482v135z" />
<glyph unicode="^" d="M119 952l502 502l501 -502l-133 -135l-368 369l-367 -367z" />
<glyph unicode="_" d="M76 -131h1093v-191h-1093v191z" />
<glyph unicode="`" horiz-adv-x="638" d="M94 1419l236 29l217 -348h-156z" />
<glyph unicode="a" horiz-adv-x="1107" d="M78 268q0 178 127.5 267.5t406.5 89.5q41 0 103 -4v98q0 149 -193 149q-91 0 -170 -12v-139h-207v305q186 22 394 22q217 0 310 -83.5t93 -241.5v-414q0 -115 96 -115q15 0 33 3v-193q-46 -6 -84 -6q-92 0 -147 34q-77 48 -95 162q-90 -206 -362 -206q-142 0 -223.5 77 t-81.5 207zM311 301q0 -64 38.5 -99.5t107.5 -35.5q110 0 184 65t74 175v69q-58 4 -97 4q-307 0 -307 -178z" />
<glyph unicode="b" horiz-adv-x="1222" d="M47 0v193h129v1048h-129v193h356v-617q38 102 117 164.5t197 62.5q191 0 305.5 -146.5t114.5 -385.5t-114.5 -385.5t-305.5 -146.5q-113 0 -195.5 64.5t-118.5 162.5v-207h-356zM403 506q0 -96 25 -169.5t83 -120t144 -46.5q120 0 179 89t59 253t-59 253t-179 89 t-186 -89t-66 -259z" />
<glyph unicode="c" horiz-adv-x="1048" d="M84 512q0 261 130.5 396.5t354.5 135.5q194 0 406 -22v-340h-219v158q-109 16 -191 16q-122 0 -188 -89.5t-66 -250.5t64 -253.5t186 -92.5q94 0 149.5 49.5t67.5 140.5h228q-19 -170 -140.5 -275t-296.5 -105q-227 0 -356 145t-129 387z" />
<glyph unicode="d" horiz-adv-x="1220" d="M84 512q0 238 117 385t309 147q117 0 192.5 -62t114.5 -165v424h-129v193h356v-1241h130v-193h-357v207q-38 -100 -117 -163.5t-190 -63.5q-192 0 -309 147t-117 385zM322 512q0 -163 61 -252.5t182 -89.5q86 0 144 46.5t83 120t25 169.5q0 170 -66 259t-186 89 q-121 0 -182 -89.5t-61 -252.5z" />
<glyph unicode="e" horiz-adv-x="1103" d="M84 514q0 239 131 384.5t356 145.5q93 0 171 -30.5t132.5 -85t91.5 -126.5t52 -158q11 -64 11 -133q0 -23 -1 -46h-711q15 -297 246 -297q85 0 139.5 42.5t73.5 121.5h236q-33 -165 -154.5 -258.5t-290.5 -93.5q-222 0 -352.5 145t-130.5 389zM324 621h462 q-3 110 -63 179.5t-160 69.5q-209 0 -239 -249z" />
<glyph unicode="f" horiz-adv-x="704" d="M39 831v193h151v84q0 172 92 259t253 87q80 0 153 -16v-187q-69 17 -125 17q-145 0 -145 -158v-86h270v-193h-270v-638h127v-193h-484v193h129v638h-151z" />
<glyph unicode="g" horiz-adv-x="1140" d="M94 -186q0 75 44 136.5t116 94.5q-64 22 -96.5 58t-32.5 104q0 60 39 117t96 84q-133 99 -133 270q0 167 114.5 266.5t325.5 99.5q85 0 162 -22q6 127 96.5 197.5t253.5 70.5v-192q-104 0 -152.5 -32t-52.5 -114q134 -106 134 -280q0 -160 -117 -257.5t-330 -97.5 q-93 0 -182 29q-45 -38 -45 -84q0 -44 28.5 -63t86.5 -19h313q171 0 248 -69.5t77 -202.5q0 -169 -129.5 -265t-396.5 -96q-467 0 -467 267zM324 -119q0 -162 243 -162q150 0 215.5 51.5t65.5 135.5q0 117 -160 117h-227q-9 0 -28 1t-27 1q-82 -51 -82 -144zM362 676 q0 -87 53.5 -142t153.5 -55q103 0 156 52.5t53 144.5q0 94 -53.5 148.5t-155.5 54.5q-103 0 -155 -53.5t-52 -149.5z" />
<glyph unicode="h" horiz-adv-x="1193" d="M47 0v193h129v1048h-129v193h356v-584q89 194 316 194q155 0 235 -96t80 -270v-485h129v-193h-475v193h117v440q0 108 -39.5 161.5t-132.5 53.5q-99 0 -164.5 -70.5t-65.5 -204.5v-380h117v-193h-473z" />
<glyph unicode="i" horiz-adv-x="579" d="M47 0v193h129v638h-129v193h356v-831h129v-193h-485zM174 1176v202h232v-202h-232z" />
<glyph unicode="j" horiz-adv-x="557" d="M16 -254q84 0 123 37.5t39 146.5v901h-129v193h357v-1108q0 -89 -34.5 -159.5t-91 -113t-124.5 -65t-140 -22.5v190zM176 1176v202h232v-202h-232z" />
<glyph unicode="k" horiz-adv-x="1091" d="M47 0v193h129v1048h-129v193h356v-1241h129v-193h-485zM406 518l299 313h-123v193h485v-193h-113l-295 -294l297 -344h113v-193h-252z" />
<glyph unicode="l" horiz-adv-x="579" d="M47 0v193h129v1048h-129v193h356v-1241h129v-193h-485z" />
<glyph unicode="m" horiz-adv-x="1796" d="M47 0v193h129v638h-129v193h356v-180q89 200 304 200q111 0 186.5 -64.5t99.5 -170.5q49 119 135.5 177t196.5 58q149 0 229 -96.5t80 -269.5v-485h129v-193h-473v193h117v436q0 219 -166 219q-95 0 -159 -71.5t-64 -215.5v-368h123v-193h-473v193h123v436 q0 219 -168 219q-95 0 -157.5 -74t-62.5 -223v-358h117v-193h-473z" />
<glyph unicode="n" horiz-adv-x="1193" d="M47 0v193h129v638h-129v193h356v-174q89 194 316 194q155 0 235 -96t80 -270v-485h129v-193h-475v193h117v440q0 108 -38.5 161.5t-131.5 53.5q-99 0 -165 -70.5t-67 -204.5v-380h117v-193h-473z" />
<glyph unicode="o" horiz-adv-x="1118" d="M84 514q0 246 130 388t345 142t344 -142t129 -388q0 -250 -129 -392t-344 -142t-345 142t-130 392zM313 514q0 -164 63.5 -252t182.5 -88t182.5 88t63.5 252q0 161 -63.5 249.5t-182.5 88.5t-182.5 -88.5t-63.5 -249.5z" />
<glyph unicode="p" horiz-adv-x="1222" d="M47 -240h129v1071h-129v193h356v-207q38 102 117 164.5t197 62.5q191 0 305.5 -146.5t114.5 -385.5t-114.5 -385.5t-305.5 -146.5q-113 0 -195.5 64.5t-118.5 162.5v-447h129v-192h-485v192zM403 506q0 -96 25 -169.5t83 -120t144 -46.5q121 0 182.5 89.5t61.5 252.5 t-61.5 252.5t-182.5 89.5q-120 0 -186 -89t-66 -259z" />
<glyph unicode="q" horiz-adv-x="1220" d="M84 512q0 239 114.5 385.5t305.5 146.5q117 0 196 -62.5t117 -164.5v207h357v-193h-130v-1071h130v-192h-486v192h129v447q-36 -99 -118 -163t-195 -64q-191 0 -305.5 146.5t-114.5 385.5zM322 512q0 -163 61 -252.5t182 -89.5q86 0 144 46.5t83 120t25 169.5 q0 170 -66 259t-186 89q-121 0 -182 -89.5t-61 -252.5z" />
<glyph unicode="r" horiz-adv-x="894" d="M47 0v193h129v638h-129v193h356v-203q83 223 324 223q48 0 123 -10v-364h-209v143q-24 4 -47 4q-78 0 -134.5 -77.5t-56.5 -200.5v-346h129v-193h-485z" />
<glyph unicode="s" horiz-adv-x="1036" d="M86 307h215q5 -71 64.5 -114t158.5 -43q111 0 161 37.5t50 93.5q0 30 -11 53t-28.5 37t-48 24.5t-58.5 15.5t-71 11q-52 7 -85 12.5t-80.5 17.5t-77.5 25.5t-64 37t-53 52.5t-32 71t-13 93q0 132 111.5 222.5t299.5 90.5q176 0 379 -26v-295h-205v137q-69 14 -166 14 q-101 0 -149.5 -35t-48.5 -91q0 -26 11 -46t28.5 -33t48 -23t59.5 -16t72 -12q52 -6 87 -12t81 -17.5t77 -25.5t64 -37t52 -52.5t31.5 -71.5t12.5 -93q0 -70 -25.5 -128.5t-77 -104t-137.5 -71t-200 -25.5q-199 0 -312.5 90t-119.5 237z" />
<glyph unicode="t" horiz-adv-x="700" d="M23 831v193h151v236h227v-236h271v-193h-271v-477q0 -92 36 -134t116 -42q55 0 119 17v-193q-82 -18 -154 -18q-162 0 -253 82t-91 253v512h-151z" />
<glyph unicode="u" horiz-adv-x="1193" d="M33 831v193h356v-633q0 -108 38.5 -161.5t131.5 -53.5q98 0 163 68t71 202v385h-129v193h356v-831h127v-193h-354v174q-89 -194 -316 -194q-156 0 -235.5 95.5t-79.5 270.5v485h-129z" />
<glyph unicode="v" horiz-adv-x="1091" d="M10 831v193h449v-193h-107l166 -505q20 -75 31 -154q8 55 33 154l170 505h-107v193h434v-193h-106l-283 -831h-297l-278 831h-105z" />
<glyph unicode="w" horiz-adv-x="1628" d="M10 831v193h439v-193h-111l133 -487q20 -83 29 -149q10 75 28 149l181 680h217l176 -680q21 -72 31 -147q5 51 28 147l135 487h-112v193h434v-193h-102l-234 -831h-270l-166 600q-29 110 -35 166q-7 -68 -33 -166l-172 -600h-262l-231 831h-103z" />
<glyph unicode="x" horiz-adv-x="1118" d="M14 0v193h121l254 329l-239 309h-127v193h456v-193h-78q123 -165 164 -225q86 119 164 225h-78v193h443v-193h-127l-232 -299l262 -339h107v-193h-451v193h84q-118 160 -180 247q-86 -124 -180 -247h86v-193h-449z" />
<glyph unicode="y" horiz-adv-x="1091" d="M10 831v193h449v-193h-107l166 -522q15 -53 31 -168q15 104 33 168l170 522h-107v193h434v-193h-106l-314 -911q-22 -69 -49 -122.5t-55.5 -92t-65 -65t-71.5 -43t-83 -25.5t-91 -12.5t-103 -3.5v202q100 0 156 26.5t82 92.5l29 78l-293 876h-105z" />
<glyph unicode="z" horiz-adv-x="962" d="M70 0v176l553 674h-334v-137h-209v311h803v-174l-535 -657h549v-193h-827z" />
<glyph unicode="{" horiz-adv-x="811" d="M123 422v180h55q139 0 139 209q0 40 -7 135.5t-7 140.5q0 59 12.5 110.5t43.5 99.5t78.5 82t122 54.5t169.5 20.5l12 -151q-56 0 -96 -12.5t-64 -33t-38 -54t-18.5 -67.5t-4.5 -81q0 -49 12.5 -148t12.5 -149q0 -104 -45.5 -165.5t-130.5 -76.5q86 -17 132 -82t46 -174 q0 -50 -11.5 -147t-11.5 -144q0 -60 8 -101.5t30.5 -78t66.5 -54.5t112 -18l-12 -149q-95 0 -169.5 20.5t-122 54.5t-78.5 82.5t-43.5 100t-12.5 111.5q0 44 7 139.5t7 134.5q0 105 -33 158t-106 53h-55z" />
<glyph unicode="|" horiz-adv-x="698" d="M231 -432v1866h236v-1866h-236z" />
<glyph unicode="}" horiz-adv-x="811" d="M70 -281q69 0 114.5 17.5t68.5 53.5t31.5 76.5t8.5 98.5q0 49 -12.5 148t-12.5 149q0 106 45 167.5t129 76.5q-86 18 -132 81.5t-46 172.5q0 51 12.5 148t12.5 143q0 60 -8.5 101.5t-31 78t-67 54.5t-112.5 18l12 151q95 0 169.5 -20.5t122 -54.5t78.5 -82.5t43.5 -100 t12.5 -111.5q0 -43 -7 -139t-7 -137q0 -209 139 -209h55v-180h-55q-137 0 -137 -209q0 -41 7 -137.5t7 -139.5q0 -75 -21.5 -138t-68.5 -115.5t-133.5 -82.5t-204.5 -30z" />
<glyph unicode="~" d="M131 1042q24 130 99 193t180 63q69 0 135.5 -25.5t109.5 -56t92.5 -56t88.5 -25.5q56 0 87 29t46 100l141 -76q-24 -131 -97.5 -193.5t-178.5 -62.5q-52 0 -101.5 17t-88.5 41t-75.5 48t-78.5 41t-84 17q-55 0 -87 -30t-47 -101z" />
<glyph unicode="&#xa2;" horiz-adv-x="1185" d="M145 733q0 229 110 366t300 161v163h117v-157q110 -2 364 -27v-338h-192v164q-91 13 -172 16v-688q74 12 122.5 62.5t63.5 126.5h211q-25 -163 -132 -266t-265 -115v-189h-117v193q-194 25 -302 166t-108 362zM354 733q0 -137 51.5 -226t149.5 -112v676 q-97 -23 -149 -109.5t-52 -228.5z" />
<glyph unicode="&#xa3;" horiz-adv-x="1261" d="M63 618v125h113q-37 164 -37 254q0 88 31 168t91.5 145.5t161.5 104.5t230 39q118 0 218.5 -14t246.5 -45v-355h-213v185q-149 32 -256 32q-61 0 -108 -15.5t-74.5 -39t-44.5 -57.5t-23 -65.5t-6 -67.5q0 -92 33 -269h426v-125h-403q10 -68 10 -122q0 -79 -22.5 -149.5 t-76.5 -153.5h750v-193h-979v193q94 120 94 272q0 61 -18 153h-144z" />
<glyph unicode="&#xa5;" horiz-adv-x="1226" d="M-2 1241v193h526v-193h-121l220 -422l225 422h-119v193h508v-193h-129l-283 -481h224v-127h-297l-13 -23v-108h240v-125h-240v-184h168v-193h-585v193h170v184h-240v125h240v108l-15 23h-295v127h221l-282 481h-123z" />
<glyph unicode="&#xa8;" horiz-adv-x="800" d="M135 1176v178h170v-178h-170zM496 1176v178h170v-178h-170z" />
<glyph unicode="&#xa9;" horiz-adv-x="1699" d="M96 717q0 164 61 304t163.5 234t239 146.5t286.5 52.5q209 0 381.5 -92t274.5 -261.5t102 -383.5q0 -217 -103 -387t-275 -260t-380 -90q-120 0 -232.5 33t-206 97.5t-163.5 152.5t-109 205t-39 249zM289 717q0 -262 152 -427t405 -165q172 0 300 77t193.5 210t65.5 305 t-65.5 305t-193.5 210t-300 77q-253 0 -405 -165t-152 -427zM434 719q0 219 110.5 334.5t297.5 115.5q153 0 338 -30v-269h-158v138q-88 18 -182 18q-109 0 -172.5 -82.5t-63.5 -224.5q0 -138 63.5 -221.5t172.5 -83.5q76 0 182 18v137h158v-266q-183 -33 -338 -33 q-188 0 -298 123.5t-110 325.5z" />
<glyph unicode="&#xab;" horiz-adv-x="1239" d="M111 485v158l436 385l98 -98l-332 -367l332 -364l-98 -99zM594 485v158l436 385l96 -98l-329 -367l329 -364l-96 -99z" />
<glyph unicode="&#xad;" horiz-adv-x="720" d="M111 537v192h499v-192h-499z" />
<glyph unicode="&#xae;" horiz-adv-x="1044" d="M96 1038q0 186 123 301t301 115q185 0 306.5 -115.5t121.5 -302.5t-122 -300t-306 -113q-182 0 -303 113.5t-121 301.5zM209 1038q0 -148 84.5 -238.5t226.5 -90.5q145 0 228 90t83 239t-83 239.5t-228 90.5q-136 0 -223.5 -88t-87.5 -242zM344 811v461h221 q80 0 121 -36.5t41 -94.5q0 -101 -106 -125q43 -8 67.5 -38t24.5 -79v-88h-97v94q0 40 -19 58t-58 18h-101v-170h-94zM438 1053h109q41 0 60.5 21t19.5 56q0 70 -80 70h-109v-147z" />
<glyph unicode="&#xb4;" horiz-adv-x="638" d="M94 1100l215 348l238 -29l-297 -319h-156z" />
<glyph unicode="&#xb8;" horiz-adv-x="731" d="M111 -399l65 77q18 -23 61 -37t89 -14q60 0 91.5 23.5t31.5 62.5q0 45 -40.5 72t-123.5 27q-44 0 -117 -13l108 201h144l-78 -117q38 6 72 6q92 0 148 -43t56 -118q0 -92 -79 -147.5t-199 -55.5q-68 0 -130 20t-99 56z" />
<glyph unicode="&#xbb;" horiz-adv-x="1239" d="M111 199l331 366l-331 365l98 98l436 -385v-158l-436 -385zM594 199l330 366l-330 365l96 98l436 -385v-158l-436 -385z" />
<glyph unicode="&#x2c6;" horiz-adv-x="886" d="M100 1120l240 307h207l239 -307l-155 -28l-187 198l-188 -198z" />
<glyph unicode="&#x2da;" horiz-adv-x="704" d="M104 1268q0 92 71 146t175 54q105 0 176.5 -54t71.5 -146q0 -93 -71 -146t-177 -53q-105 0 -175.5 53t-70.5 146zM242 1270q0 -44 30 -68t78 -24q51 0 79 23t28 67q0 41 -31 65.5t-76 24.5q-50 0 -79 -25.5t-29 -62.5z" />
<glyph unicode="&#x2dc;" horiz-adv-x="888" d="M121 1186q8 99 55 154t131 55q46 0 90 -18.5t72 -40t59.5 -40t55.5 -18.5q35 0 56 19t28 67l100 -16q-12 -101 -58.5 -157t-121.5 -56q-41 0 -82.5 19t-70.5 42t-65 42t-67 19q-77 0 -86 -94z" />
<glyph unicode="&#x401;" horiz-adv-x="1329" d="M59 0v193h168v1048h-168v193h1162v-365h-248v172h-498v-403h543v-191h-543v-454h508v184h248v-377h-1172zM414 1538v170h172v-170h-172zM797 1538v170h172v-170h-172z" />
<glyph unicode="&#x402;" horiz-adv-x="1626" d="M29 1057v377h1233v-377h-224v184h-268v-516q39 89 135 142t232 53q150 0 244 -101t94 -270v-316q0 -72 -26 -131t-68.5 -98t-98.5 -65.5t-113.5 -38.5t-115.5 -13v205q75 0 119.5 49t44.5 150v211q0 106 -48 163.5t-143 57.5q-102 0 -179 -71.5t-77 -200.5v-258h133v-193 h-553v193h172v1048h-270v-184h-223z" />
<glyph unicode="&#x403;" horiz-adv-x="1230" d="M59 0v193h168v1048h-168v193h1143v-418h-248v225h-479v-1048h182v-193h-598zM522 1483l240 313l213 -24l-307 -289h-146z" />
<glyph unicode="&#x404;" horiz-adv-x="1423" d="M88 717q0 156 46.5 290t133 233.5t220 156.5t298.5 57q235 0 527 -63v-375h-248v190q-159 31 -287 31q-182 0 -286 -106t-130 -293h553v-191h-559q14 -208 119.5 -329t296.5 -121q139 0 293 30v191h248v-375q-292 -63 -541 -63q-156 0 -286 57t-216.5 156t-134 234 t-47.5 290z" />
<glyph unicode="&#x405;" horiz-adv-x="1325" d="M125 1032q0 88 33.5 163t98 133.5t169 92t238.5 33.5q217 0 497 -59v-355h-248v187q-147 35 -254 35q-148 0 -212 -58.5t-64 -150.5q0 -102 69.5 -145.5t227.5 -63.5q128 -13 223.5 -40.5t170 -76t113 -125t38.5 -180.5q0 -94 -37 -174.5t-107 -140t-179 -93.5t-245 -34 q-219 0 -518 63v360h248v-192q160 -39 277 -39q153 0 226 64t73 163q0 47 -15 82t-40 58t-69 40t-90.5 26.5t-115.5 19.5q-130 16 -219.5 42.5t-157 73t-99.5 118.5t-32 173z" />
<glyph unicode="&#x406;" horiz-adv-x="704" d="M59 0v193h168v1048h-168v193h586v-193h-170v-1048h170v-193h-586z" />
<glyph unicode="&#x407;" horiz-adv-x="704" d="M59 0v193h168v1048h-168v193h586v-193h-170v-1048h170v-193h-586zM76 1538v170h172v-170h-172zM459 1538v170h172v-170h-172z" />
<glyph unicode="&#x408;" horiz-adv-x="1157" d="M4 381h256q7 -82 62 -136.5t161 -54.5q127 0 185.5 57.5t58.5 170.5v823h-170v193h588v-193h-170v-821q0 -203 -135.5 -321.5t-366.5 -118.5q-197 0 -329 115.5t-140 285.5z" />
<glyph unicode="&#x409;" horiz-adv-x="2195" d="M23 -20v233q77 0 130 36.5t89 119.5q100 220 127 872h-160v193h1218v-193h-170v-360h394q111 0 200.5 -36t144.5 -97.5t84 -138.5t29 -163q0 -87 -29.5 -166.5t-84 -142t-140.5 -100t-192 -37.5h-823v193h170v1048h-394q-19 -709 -176 -1008q-133 -253 -417 -253z M1257 193h347q128 0 189.5 72t61.5 188q0 114 -65 185t-191 71h-342v-516z" />
<glyph unicode="&#x40a;" horiz-adv-x="2187" d="M59 0v193h168v1048h-168v193h586v-193h-170v-360h563v360h-170v193h586v-193h-170v-360h358q111 0 200.5 -36t145 -97.5t84.5 -138.5t29 -163q0 -87 -29 -166.5t-83.5 -142t-141 -100t-192.5 -37.5h-787v193h170v512h-563v-512h170v-193h-586zM1284 193h311q128 0 190 72 t62 188q0 113 -64 182.5t-190 69.5h-309v-512z" />
<glyph unicode="&#x40b;" horiz-adv-x="1634" d="M29 1057v377h1233v-377h-224v184h-268v-524q39 89 126 141.5t206 52.5q157 0 247.5 -97.5t90.5 -268.5v-352h147v-193h-393v500q0 106 -43 160.5t-137 54.5q-100 0 -172 -71.5t-72 -201.5v-249h158v-193h-578v193h172v1048h-270v-184h-223z" />
<glyph unicode="&#x40c;" horiz-adv-x="1425" d="M59 0v193h168v1048h-168v193h586v-193h-170v-1048h170v-193h-586zM489 735l461 506h-157v193h591v-193h-147l-461 -491l490 -557h143v-193h-600v193h166zM594 1483l240 313l213 -24l-308 -289h-145z" />
<glyph unicode="&#x40e;" horiz-adv-x="1409" d="M20 1241v193h566v-193h-148l238 -471q21 -46 43 -121q22 75 43 121l233 471h-139v193h543v-193h-139l-478 -932q-79 -166 -194.5 -247.5t-278.5 -81.5q-63 0 -112 8v221q38 -6 79 -6q159 0 224 112l73 136l-405 790h-148zM424 1753h149q0 -71 35 -111t103 -40 q71 0 105 41.5t34 109.5h149q-1 -110 -85 -180t-203 -70t-203 70t-84 180z" />
<glyph unicode="&#x40f;" horiz-adv-x="1550" d="M59 0v193h168v1048h-168v193h586v-193h-170v-1048h598v1048h-170v193h588v-193h-170v-1048h170v-193h-598l-41 -334h-156l-43 334h-594z" />
<glyph unicode="&#x410;" horiz-adv-x="1517" d="M14 0v193h142l368 1048h-162v193h799v-193h-166l367 -1048h141v-193h-569v193h160l-80 237h-520l-82 -237h172v-193h-570zM551 618h403l-153 467q-27 81 -47 185q-22 -99 -47 -185z" />
<glyph unicode="&#x411;" horiz-adv-x="1431" d="M59 0v193h168v1048h-168v193h1147v-353h-223v160h-508v-395h393q112 0 201 -34t144.5 -93t84.5 -134t29 -161q0 -88 -29 -164t-83.5 -134.5t-140 -92t-191.5 -33.5h-824zM475 193h346q130 0 192 65t62 174q0 107 -65 174.5t-191 67.5h-344v-481z" />
<glyph unicode="&#x412;" horiz-adv-x="1435" d="M59 0v193h168v1048h-168v193h807q207 0 315.5 -98t108.5 -246q0 -281 -291 -336q164 -21 251 -120t87 -243q0 -169 -117.5 -280t-326.5 -111h-834zM475 193h344q140 0 205.5 62.5t65.5 166.5t-68 169.5t-203 65.5h-344v-464zM475 827h324q125 0 180 58.5t55 154.5 q0 201 -235 201h-324v-414z" />
<glyph unicode="&#x413;" horiz-adv-x="1230" d="M59 0v193h168v1048h-168v193h1143v-418h-248v225h-479v-1048h182v-193h-598z" />
<glyph unicode="&#x414;" horiz-adv-x="1611" d="M18 193h211q204 397 215 1048h-180v193h1211v-193h-175v-1048h271l-33 -549h-219v356h-1049v-356h-219zM463 193h590v1048h-375q-7 -619 -215 -1048z" />
<glyph unicode="&#x415;" horiz-adv-x="1329" d="M59 0v193h168v1048h-168v193h1162v-365h-248v172h-498v-403h543v-191h-543v-454h508v184h248v-377h-1172z" />
<glyph unicode="&#x416;" horiz-adv-x="2082" d="M25 0v193h147l463 544l-447 504h-147v193h590v-193h-158l442 -506l-587 -735h-303zM748 0v193h170v1048h-170v193h587v-193h-170v-1048h170v-193h-587zM1167 735l443 506h-158v193h590v-193h-148l-446 -504l463 -544h147v-193h-303z" />
<glyph unicode="&#x417;" horiz-adv-x="1286" d="M111 53v326h237v-186q121 -31 277 -31q134 0 218.5 65t84.5 168q0 122 -101.5 186t-302.5 64v178q377 0 377 236q0 100 -70.5 156.5t-209.5 56.5q-137 0 -261 -31v-186h-235v325q253 74 514 74q241 0 379.5 -101.5t138.5 -267.5q0 -153 -100 -240t-277 -108 q185 -14 290.5 -103t105.5 -247q0 -182 -151.5 -294.5t-395.5 -112.5q-268 0 -518 73z" />
<glyph unicode="&#x418;" horiz-adv-x="1560" d="M59 0v193h168v1048h-168v193h586v-193h-170v-754q0 -85 -6 -153q17 53 66 143l446 764h-104v193h624v-193h-170v-1048h170v-193h-586v193h168v774q0 63 7 135q-17 -49 -62 -131l-450 -778h108v-193h-627z" />
<glyph unicode="&#x419;" horiz-adv-x="1560" d="M59 0v193h168v1048h-168v193h586v-193h-170v-754q0 -85 -6 -153q17 53 66 143l446 764h-104v193h624v-193h-170v-1048h170v-193h-586v193h168v774q0 63 7 135q-17 -49 -62 -131l-450 -778h108v-193h-627zM492 1753h149q2 -71 37 -111t102 -40q70 0 105 42t35 109h149 q-1 -110 -85.5 -180t-203.5 -70q-118 0 -202.5 70t-85.5 180z" />
<glyph unicode="&#x41a;" horiz-adv-x="1425" d="M59 0v193h168v1048h-168v193h586v-193h-170v-1048h170v-193h-586zM489 735l461 506h-157v193h591v-193h-147l-461 -491l490 -557h143v-193h-600v193h166z" />
<glyph unicode="&#x41b;" horiz-adv-x="1484" d="M23 -20v233q77 0 130 36.5t89 119.5q100 220 127 872h-160v193h1218v-193h-170v-1048h170v-193h-587v193h170v1048h-394q-19 -709 -176 -1008q-133 -253 -417 -253z" />
<glyph unicode="&#x41c;" horiz-adv-x="1908" d="M59 0v193h168v1048h-168v193h557l318 -963q19 -61 33 -170q22 135 34 170l318 963h530v-193h-168v-1048h168v-193h-577v193h170v843q0 106 6 183q-13 -67 -45 -183l-348 -1036h-203l-350 1036q-6 23 -14 55.5t-16.5 72t-12.5 55.5q6 -76 6 -183v-843h170v-193h-576z" />
<glyph unicode="&#x41d;" horiz-adv-x="1550" d="M59 0v193h168v1048h-168v193h586v-193h-170v-401h598v401h-170v193h588v-193h-170v-1048h170v-193h-588v193h170v452h-598v-452h170v-193h-586z" />
<glyph unicode="&#x41e;" horiz-adv-x="1517" d="M88 717q0 155 46.5 289.5t131.5 234t212.5 156.5t281.5 57q153 0 280.5 -57t212 -156.5t131 -234t46.5 -289.5t-46.5 -289.5t-131 -234t-212 -156.5t-280.5 -57q-154 0 -281.5 57t-212.5 156.5t-131.5 234t-46.5 289.5zM354 717q0 -238 103 -379t303 -141q199 0 301 141 t102 379t-102 379t-301 141q-200 0 -303 -141t-103 -379z" />
<glyph unicode="&#x41f;" horiz-adv-x="1550" d="M59 0v193h168v1048h-168v193h1432v-193h-170v-1048h170v-193h-588v193h170v1048h-598v-1048h170v-193h-586z" />
<glyph unicode="&#x420;" horiz-adv-x="1359" d="M59 0v193h168v1048h-168v193h818q105 0 189 -35t137 -96t80.5 -140.5t27.5 -171.5q0 -96 -27 -177t-81 -143.5t-141 -98t-200 -35.5h-387v-344h184v-193h-600zM475 715h340q124 0 183 72.5t59 197.5q0 254 -242 254h-340v-524z" />
<glyph unicode="&#x421;" horiz-adv-x="1406" d="M88 717q0 156 46.5 290t133 233.5t220 156.5t298.5 57q252 0 514 -63v-375h-247v190q-145 31 -275 31q-106 0 -187.5 -38t-133 -108t-77.5 -164t-26 -210q0 -237 108.5 -377.5t315.5 -140.5q149 0 275 30v189h247v-375q-276 -63 -522 -63q-126 0 -236 36.5t-192.5 103.5 t-141.5 158.5t-89.5 203t-30.5 235.5z" />
<glyph unicode="&#x422;" horiz-adv-x="1290" d="M29 1053v381h1233v-381h-224v188h-268v-1048h168v-193h-588v193h172v1048h-270v-188h-223z" />
<glyph unicode="&#x423;" horiz-adv-x="1409" d="M20 1241v193h566v-193h-148l238 -471q21 -46 43 -121q22 75 43 121l233 471h-139v193h543v-193h-139l-478 -932q-79 -166 -194.5 -247.5t-278.5 -81.5q-63 0 -112 8v221q38 -6 79 -6q159 0 224 112l73 136l-405 790h-148z" />
<glyph unicode="&#x424;" horiz-adv-x="1675" d="M84 723q0 186 164 300.5t465 129.5v88h-170v193h587v-193h-169v-88q302 -15 466 -129.5t164 -300.5t-164 -300.5t-466 -129.5v-100h169v-193h-587v193h170v100q-301 15 -465 129.5t-164 300.5zM373 723q0 -121 85 -189.5t255 -74.5v526q-170 -4 -255 -72.5t-85 -189.5z M961 459q170 6 256 74.5t86 189.5t-86 189.5t-256 72.5v-526z" />
<glyph unicode="&#x425;" horiz-adv-x="1449" d="M20 0v193h138l387 530l-379 518h-129v193h569v-193h-137l188 -280q42 -58 66 -113q24 52 70 115l186 278h-135v193h569v-193h-137l-375 -512l395 -536h134v-193h-576v193h137l-200 292q-51 74 -66 115q-29 -56 -74 -117l-194 -290h137v-193h-574z" />
<glyph unicode="&#x426;" horiz-adv-x="1632" d="M59 0v193h168v1048h-168v193h586v-193h-170v-1048h598v1048h-170v193h588v-193h-170v-1048h270l-32 -549h-220v356h-1280z" />
<glyph unicode="&#x427;" horiz-adv-x="1509" d="M39 1241v193h586v-193h-170v-434q0 -97 62 -144t163 -47q64 0 126 21t114 59.5t84 101.5t32 140v303h-170v193h586v-193h-170v-1048h170v-193h-586v193h170v464q-51 -131 -172 -200.5t-274 -69.5q-166 0 -274.5 88.5t-108.5 255.5v510h-168z" />
<glyph unicode="&#x428;" horiz-adv-x="2162" d="M59 0v193h168v1048h-168v193h586v-193h-170v-1048h483v1048h-170v193h586v-193h-170v-1048h484v1048h-170v193h585v-193h-170v-1048h170v-193h-2044z" />
<glyph unicode="&#x429;" horiz-adv-x="2246" d="M59 0v193h168v1048h-168v193h586v-193h-170v-1048h483v1048h-170v193h586v-193h-170v-1048h484v1048h-170v193h585v-193h-170v-1048h273l-35 -549h-217v356h-1895z" />
<glyph unicode="&#x42a;" horiz-adv-x="1642" d="M39 1057v377h835v-193h-169v-358h393q111 0 200.5 -36.5t144.5 -98t84 -139t29 -163.5q0 -87 -29.5 -166.5t-84 -142t-140.5 -100t-192 -37.5h-823v193h170v1048h-195v-184h-223zM705 193h346q128 0 190 72t62 188q0 114 -64.5 185t-191.5 71h-342v-516z" />
<glyph unicode="&#x42b;" horiz-adv-x="2025" d="M59 0v193h168v1048h-168v193h596v-193h-180v-360h393q111 0 200.5 -36t145 -97.5t84.5 -138.5t29 -163q0 -87 -29 -166.5t-83 -142t-140 -100t-192 -37.5h-824zM475 193h346q129 0 191.5 72t62.5 188q0 114 -65 185t-191 71h-344v-516zM1378 0v193h170v1048h-170v193h588 v-193h-170v-1048h170v-193h-588z" />
<glyph unicode="&#x42c;" horiz-adv-x="1415" d="M59 0v193h168v1048h-168v193h596v-193h-180v-360h393q111 0 200.5 -36t145 -97.5t84.5 -138.5t29 -163q0 -87 -29 -166.5t-83 -142t-140 -100t-192 -37.5h-824zM475 193h346q129 0 191.5 72t62.5 188q0 114 -65 185t-191 71h-344v-516z" />
<glyph unicode="&#x42d;" horiz-adv-x="1423" d="M109 43v375h247v-191q158 -30 293 -30q190 0 295 120.5t121 329.5h-557v191h551q-26 187 -130 293t-284 106q-126 0 -289 -31v-190h-247v375q295 63 528 63q165 0 298.5 -57t220 -156.5t133 -233.5t46.5 -290q0 -208 -81 -374t-238.5 -264.5t-366.5 -98.5q-245 0 -540 63 z" />
<glyph unicode="&#x42e;" horiz-adv-x="2115" d="M59 0v193h168v1048h-168v193h586v-193h-170v-401h242q16 132 67.5 243.5t132.5 194.5t197 129.5t254 46.5q153 0 279 -57t208.5 -156.5t127.5 -233.5t45 -290t-45 -290t-127.5 -233.5t-208.5 -156.5t-279 -57q-192 0 -336.5 86t-224 235t-94.5 344h-238v-452h170v-193 h-586zM975 717q0 -117 23 -210.5t69.5 -163.5t123 -108t177.5 -38q133 0 223 67.5t130 181.5t40 271t-40 271t-130 181.5t-223 67.5q-101 0 -177.5 -38t-123 -108t-69.5 -163.5t-23 -210.5z" />
<glyph unicode="&#x42f;" horiz-adv-x="1474" d="M29 0v193h157q0 241 84.5 360.5t231.5 138.5q-163 15 -249.5 103t-86.5 241q0 81 25 151t75 126t134 88.5t192 32.5h823v-193h-170v-1048h170v-193h-600v193h184v405h-317q-127 0 -187.5 -101.5t-60.5 -303.5h178v-193h-583zM422 1022q0 -234 237 -234h340v453h-340 q-237 0 -237 -219z" />
<glyph unicode="&#x430;" horiz-adv-x="1107" d="M78 268q0 178 127.5 267.5t406.5 89.5q41 0 103 -4v98q0 149 -193 149q-91 0 -170 -12v-139h-207v305q186 22 394 22q217 0 310 -83.5t93 -241.5v-414q0 -133 129 -112v-193q-154 -20 -231 27.5t-95 162.5q-90 -206 -362 -206q-142 0 -223.5 77t-81.5 207zM311 301 q0 -64 38.5 -99.5t107.5 -35.5q110 0 184 65t74 175v69q-58 4 -97 4q-307 0 -307 -178z" />
<glyph unicode="&#x431;" horiz-adv-x="1130" d="M94 684q0 365 135 561.5t404 196.5h125v104h188v-297h-319q-132 0 -199.5 -79.5t-89.5 -262.5q137 109 303 109q131 0 223 -63.5t136 -171.5t44 -251q0 -164 -49.5 -286t-155.5 -193t-259 -71q-486 0 -486 704zM326 662q0 -254 59.5 -370t189.5 -116q232 0 232 342 q0 153 -56 237.5t-190 84.5q-108 0 -235 -74v-104z" />
<glyph unicode="&#x432;" horiz-adv-x="1081" d="M47 0v193h129v638h-129v193h596q160 0 244 -73t84 -179q0 -87 -51.5 -148t-153.5 -87q118 -20 181 -90t63 -168q0 -120 -93.5 -199.5t-254.5 -79.5h-615zM403 164h181q182 0 182 143q0 68 -44.5 109t-135.5 41h-183v-293zM403 598h168q156 0 156 137q0 127 -156 127h-168 v-264z" />
<glyph unicode="&#x433;" horiz-adv-x="958" d="M47 0v193h129v638h-129v193h864v-371h-198v178h-310v-638h132v-193h-488z" />
<glyph unicode="&#x434;" horiz-adv-x="1280" d="M18 193h162q58 92 100 276.5t48 361.5h-123v193h944v-193h-123v-638h207l-45 -476h-195v283h-741v-283h-189zM393 193h404v638h-244q-5 -155 -52 -346.5t-108 -291.5z" />
<glyph unicode="&#x435;" horiz-adv-x="1103" d="M84 514q0 239 131 384.5t356 145.5q93 0 171 -30.5t132.5 -85t91.5 -127t52 -158t10 -178.5h-711q15 -297 246 -297q85 0 139.5 42.5t73.5 121.5h236q-33 -165 -154.5 -258.5t-290.5 -93.5q-222 0 -352.5 145t-130.5 389zM324 621h462q-3 110 -63 179.5t-160 69.5 q-209 0 -239 -249z" />
<glyph unicode="&#x436;" horiz-adv-x="1622" d="M27 0v193h114l301 331l-307 307h-102v193h461v-193h-109l313 -323l-417 -508h-254zM575 0v193h123v831h228v-516l313 323h-111v193h461v-193h-100l-309 -307l301 -331h114v-193h-252l-417 508v-315h123v-193h-474z" />
<glyph unicode="&#x437;" horiz-adv-x="991" d="M78 707v288q215 49 405 49q202 0 306 -71.5t104 -198.5q0 -104 -68.5 -166.5t-189.5 -83.5q129 -12 201.5 -77t72.5 -175q0 -134 -114.5 -213t-311.5 -79q-188 0 -403 49v288h201v-149q80 -21 186 -21q93 0 142.5 39.5t49.5 104.5q0 82 -59 118.5t-192 36.5v150 q126 0 179.5 34t53.5 113q0 65 -44.5 100.5t-131.5 35.5q-97 0 -184 -23v-149h-203z" />
<glyph unicode="&#x438;" horiz-adv-x="1206" d="M47 0v193h129v638h-129v193h342v-575q0 -83 -6 -166q32 98 57 147l328 594h391v-193h-129v-638h129v-193h-346v629q0 91 8 164q-26 -80 -59 -150l-342 -643h-373z" />
<glyph unicode="&#x439;" horiz-adv-x="1206" d="M47 0v193h129v638h-129v193h342v-575q0 -83 -6 -166q32 98 57 147l328 594h391v-193h-129v-638h129v-193h-346v629q0 91 8 164q-26 -80 -59 -150l-342 -643h-373zM338 1393h147q0 -150 125 -150q127 0 127 150h148q0 -115 -78.5 -186.5t-196.5 -71.5q-116 0 -194 71.5 t-78 186.5z" />
<glyph unicode="&#x43a;" horiz-adv-x="1101" d="M37 0v193h129v638h-129v193h479v-193h-123v-638h133v-193h-489zM401 518l310 313h-101v193h459v-193h-111l-305 -294l308 -344h122v-193h-264z" />
<glyph unicode="&#x43b;" horiz-adv-x="1191" d="M31 -12v205q113 0 172 110q47 92 74 242.5t30 285.5h-125v193h957v-193h-123v-638h129v-193h-488v193h129v638h-256q-24 -496 -178 -710q-56 -71 -131 -102t-190 -31z" />
<glyph unicode="&#x43c;" horiz-adv-x="1474" d="M47 0v193h129v638h-129v193h445l217 -625q19 -70 32 -147q10 75 33 147l215 625h438v-193h-129v-638h129v-193h-442v193h107v505q0 68 6 133q-15 -65 -35 -133l-244 -698h-162l-241 686q-28 92 -37 139q4 -43 4 -139v-493h106v-193h-442z" />
<glyph unicode="&#x43d;" horiz-adv-x="1185" d="M47 0v193h129v638h-129v193h356v-403h381v403h355v-193h-127v-638h127v-193h-355v434h-381v-434h-356z" />
<glyph unicode="&#x43e;" horiz-adv-x="1118" d="M84 514q0 246 130 388t345 142t344 -142t129 -388q0 -250 -129 -392t-344 -142t-345 142t-130 392zM313 514q0 -164 63.5 -252t182.5 -88t182.5 88t63.5 252q0 161 -63.5 249.5t-182.5 88.5t-182.5 -88.5t-63.5 -249.5z" />
<glyph unicode="&#x43f;" horiz-adv-x="1185" d="M47 0v193h129v638h-129v193h1092v-193h-127v-638h127v-193h-469v193h114v638h-381v-638h115v-193h-471z" />
<glyph unicode="&#x440;" horiz-adv-x="1222" d="M47 -240h129v1071h-129v193h356v-207q38 102 117 164.5t197 62.5q191 0 305.5 -146.5t114.5 -385.5t-114.5 -385.5t-305.5 -146.5q-113 0 -195.5 64.5t-118.5 162.5v-447h129v-192h-485v192zM403 506q0 -96 25 -169.5t83 -120t144 -46.5q121 0 182.5 89.5t61.5 252.5 t-61.5 252.5t-182.5 89.5q-120 0 -186 -89t-66 -259z" />
<glyph unicode="&#x441;" horiz-adv-x="1048" d="M84 512q0 261 130.5 396.5t354.5 135.5q194 0 406 -22v-340h-219v158q-109 16 -191 16q-122 0 -188 -89.5t-66 -250.5t64 -253.5t186 -92.5q94 0 149.5 49.5t67.5 140.5h228q-19 -170 -140.5 -275t-296.5 -105q-227 0 -356 145t-129 387z" />
<glyph unicode="&#x442;" horiz-adv-x="1021" d="M20 670v354h981v-354h-186v161h-190v-638h129v-193h-486v193h129v638h-190v-161h-187z" />
<glyph unicode="&#x443;" horiz-adv-x="1091" d="M10 831v193h449v-193h-107l166 -522q15 -53 31 -168q15 104 33 168l170 522h-107v193h434v-193h-106l-314 -911q-22 -69 -49 -122.5t-55.5 -92t-65 -65t-71.5 -43t-83 -25.5t-91 -12.5t-103 -3.5v202q100 0 156 26.5t82 92.5l29 78l-293 876h-105z" />
<glyph unicode="&#x444;" horiz-adv-x="1804" d="M84 512q0 237 114.5 384.5t293.5 147.5q109 0 183.5 -62.5t112.5 -164.5v424h-129v193h357v-617q38 102 113 164.5t184 62.5q179 0 292 -147.5t113 -384.5t-113 -384.5t-292 -147.5q-104 0 -182.5 63t-114.5 162v-445h129v-192h-486v192h129v445q-37 -99 -115 -162 t-181 -63q-179 0 -293.5 147.5t-114.5 384.5zM322 512q0 -161 57.5 -251.5t165.5 -90.5q115 0 179 95.5t64 240.5q0 167 -67 257.5t-176 90.5q-108 0 -165.5 -90.5t-57.5 -251.5zM1016 506q0 -145 63 -240.5t178 -95.5q108 0 167 90.5t59 251.5t-59 251.5t-167 90.5 t-174.5 -90.5t-66.5 -257.5z" />
<glyph unicode="&#x445;" horiz-adv-x="1118" d="M14 0v193h121l254 329l-239 309h-127v193h456v-193h-78q123 -165 164 -225q86 119 164 225h-78v193h443v-193h-127l-232 -299l262 -339h107v-193h-451v193h84q-118 160 -180 247q-86 -124 -180 -247h86v-193h-449z" />
<glyph unicode="&#x446;" horiz-adv-x="1241" d="M47 0v193h129v638h-129v193h471v-193h-115v-638h381v638h-114v193h469v-193h-127v-638h194l-45 -476h-194v283h-920z" />
<glyph unicode="&#x447;" horiz-adv-x="1200" d="M39 831v193h356v-346q0 -109 38.5 -162t131.5 -53q98 0 165 66.5t67 185.5v116h-127v193h483v-193h-129v-638h129v-193h-483v193h127v282q-40 -90 -123.5 -144.5t-200.5 -54.5q-307 0 -307 355v200h-127z" />
<glyph unicode="&#x448;" horiz-adv-x="1785" d="M47 0v193h129v638h-129v193h465v-193h-109v-638h377v638h-118v193h462v-193h-118v-638h378v638h-110v193h465v-193h-129v-638h129v-193h-1692z" />
<glyph unicode="&#x449;" horiz-adv-x="1841" d="M47 0v193h129v638h-129v193h465v-193h-109v-638h377v638h-118v193h462v-193h-118v-638h378v638h-110v193h465v-193h-129v-638h196l-45 -476h-194v283h-1520z" />
<glyph unicode="&#x44a;" horiz-adv-x="1239" d="M23 694v330h692v-193h-123v-210h252q172 0 259 -83.5t87 -224.5q0 -139 -87.5 -226t-250.5 -87h-614v193h127v638h-156v-137h-186zM592 178h207q159 0 159 141q0 69 -39 108.5t-120 39.5h-207v-289z" />
<glyph unicode="&#x44b;" horiz-adv-x="1560" d="M47 0v193h129v638h-129v193h479v-193h-123v-210h250q173 0 259.5 -83.5t86.5 -224.5q0 -139 -87 -226t-250 -87h-615zM403 178h205q160 0 160 141q0 148 -160 148h-205v-289zM1030 0v193h129v638h-129v193h486v-193h-130v-638h130v-193h-486z" />
<glyph unicode="&#x44c;" horiz-adv-x="1048" d="M47 0v193h129v638h-129v193h479v-193h-123v-210h250q173 0 259.5 -83.5t86.5 -224.5q0 -139 -87 -226t-250 -87h-615zM403 178h205q160 0 160 141q0 148 -160 148h-205v-289z" />
<glyph unicode="&#x44d;" horiz-adv-x="1054" d="M47 346h207q18 -96 71.5 -142t155.5 -46q115 0 181.5 77.5t68.5 210.5h-350v152h348q-3 127 -65 198.5t-177 71.5q-128 0 -215 -18v-145h-190v315q200 24 403 24q234 0 360 -134.5t126 -397.5q0 -240 -129.5 -386t-356.5 -146q-176 0 -294 97.5t-144 268.5z" />
<glyph unicode="&#x44e;" horiz-adv-x="1601" d="M47 0v193h129v638h-129v193h471v-193h-115v-219h183q25 202 147.5 317t313.5 115q214 0 342.5 -141.5t128.5 -388.5q0 -250 -128 -392t-343 -142q-194 0 -317.5 119.5t-145.5 330.5h-181v-237h115v-193h-471zM805 514q0 -164 61.5 -251t180.5 -87t180 87t61 251 q0 161 -61 247.5t-180 86.5t-180.5 -86.5t-61.5 -247.5z" />
<glyph unicode="&#x44f;" horiz-adv-x="1140" d="M29 0v193h114q0 68 12.5 121t33 87t49.5 57.5t59 34.5t65 15q-105 20 -163 85t-58 165q0 117 85.5 191.5t250.5 74.5h617v-193h-129v-638h129v-193h-463v193h106v233h-186q-35 0 -59 -4t-48.5 -18.5t-39.5 -39t-24 -67.5t-9 -104h106v-193h-448zM375 713q0 -142 155 -142 h207v275h-207q-155 0 -155 -133z" />
<glyph unicode="&#x451;" horiz-adv-x="1103" d="M84 514q0 239 131 384.5t356 145.5q93 0 171 -30.5t132.5 -85t91.5 -127t52 -158t10 -178.5h-711q15 -297 246 -297q85 0 139.5 42.5t73.5 121.5h236q-33 -165 -154.5 -258.5t-290.5 -93.5q-222 0 -352.5 145t-130.5 389zM307 1176v178h170v-178h-170zM324 621h462 q-3 110 -63 179.5t-160 69.5q-209 0 -239 -249zM668 1176v178h170v-178h-170z" />
<glyph unicode="&#x452;" horiz-adv-x="1208" d="M45 1118v74h131v80h-129v162h356v-242h181v-74h-181v-268q89 194 316 194q155 0 235 -96t80 -270v-717q0 -89 -34 -160.5t-90.5 -114t-124 -65t-140.5 -22.5v180q78 2 119 41.5t41 140.5v672q0 108 -38.5 161.5t-131.5 53.5q-99 0 -165 -70.5t-67 -204.5v-380h129v-193 h-485v193h129v925h-131z" />
<glyph unicode="&#x453;" horiz-adv-x="958" d="M47 0v193h129v638h-129v193h864v-371h-198v178h-310v-638h132v-193h-488zM346 1100l215 348l238 -29l-297 -319h-156z" />
<glyph unicode="&#x454;" horiz-adv-x="1054" d="M84 512q0 261 132.5 396.5t356.5 135.5q201 0 404 -24v-315h-191v145q-90 18 -217 18q-107 0 -169.5 -69.5t-77.5 -200.5h358v-152h-361q12 -138 76.5 -213t177.5 -75q103 0 156.5 46t71.5 142h207q-26 -171 -144.5 -268.5t-294.5 -97.5q-227 0 -356 145t-129 387z" />
<glyph unicode="&#x455;" horiz-adv-x="1036" d="M86 307h215q5 -71 64.5 -114t158.5 -43q111 0 161 37.5t50 93.5q0 30 -11 53t-28.5 37t-48 24.5t-58.5 15.5t-71 11q-52 7 -85 12.5t-80.5 17.5t-77.5 25.5t-64 37t-53 52.5t-32 71t-13 93q0 132 111.5 222.5t299.5 90.5q176 0 379 -26v-295h-205v137q-69 14 -166 14 q-101 0 -149.5 -35t-48.5 -91q0 -26 11 -46t28.5 -33t48 -23t59.5 -16t72 -12q52 -6 87 -12t81 -17.5t77 -25.5t64 -37t52 -52.5t31.5 -71.5t12.5 -93q0 -70 -25.5 -128.5t-77 -104t-137.5 -71t-200 -25.5q-199 0 -312.5 90t-119.5 237z" />
<glyph unicode="&#x456;" horiz-adv-x="579" d="M47 0v193h129v638h-129v193h356v-831h129v-193h-485zM174 1176v202h232v-202h-232z" />
<glyph unicode="&#x457;" horiz-adv-x="567" d="M6 1176v178h170v-178h-170zM47 0v193h129v638h-129v193h344v-831h129v-193h-473zM367 1176v178h170v-178h-170z" />
<glyph unicode="&#x458;" horiz-adv-x="557" d="M16 -254q84 0 123 37.5t39 146.5v901h-129v193h357v-1108q0 -89 -34.5 -159.5t-91 -113t-124.5 -65t-140 -22.5v190zM176 1176v202h232v-202h-232z" />
<glyph unicode="&#x459;" horiz-adv-x="1671" d="M31 -12v205q109 0 172 116q47 91 74 239t30 283h-125v193h965v-193h-133v-210h262q172 0 259 -83.5t87 -224.5q0 -139 -87.5 -226t-250.5 -87h-627v193h129v638h-256q-25 -488 -180 -700q-115 -143 -319 -143zM1014 178h217q160 0 160 141q0 69 -39 108.5t-121 39.5h-217 v-289z" />
<glyph unicode="&#x45a;" horiz-adv-x="1669" d="M47 0v193h129v638h-129v193h356v-403h392v210h-129v193h491v-193h-135v-210h252q172 0 259 -83.5t87 -224.5q0 -139 -88 -226t-252 -87h-614v193h129v274h-392v-467h-356zM1022 178h207q160 0 160 141q0 69 -39 108.5t-121 39.5h-207v-289z" />
<glyph unicode="&#x45b;" horiz-adv-x="1208" d="M45 1118v74h131v80h-129v162h356v-242h181v-74h-181v-268q89 194 316 194q155 0 235 -96t80 -270v-485h129v-193h-475v193h117v440q0 108 -39.5 161.5t-132.5 53.5q-99 0 -164.5 -70.5t-65.5 -204.5v-380h117v-193h-473v193h129v925h-131z" />
<glyph unicode="&#x45c;" horiz-adv-x="1101" d="M37 0v193h129v638h-129v193h479v-193h-123v-638h133v-193h-489zM401 518l310 313h-101v193h459v-193h-111l-305 -294l308 -344h122v-193h-264zM416 1100l215 348l237 -29l-297 -319h-155z" />
<glyph unicode="&#x45e;" horiz-adv-x="1091" d="M10 831v193h449v-193h-107l166 -522q15 -53 31 -168q15 104 33 168l170 522h-107v193h434v-193h-106l-314 -911q-22 -69 -49 -122.5t-55.5 -92t-65 -65t-71.5 -43t-83 -25.5t-91 -12.5t-103 -3.5v202q100 0 156 26.5t82 92.5l29 78l-293 876h-105zM283 1393h147 q0 -150 125 -150q127 0 127 150h147q0 -115 -78 -186.5t-196 -71.5q-116 0 -194 71.5t-78 186.5z" />
<glyph unicode="&#x45f;" horiz-adv-x="1185" d="M47 0v193h129v638h-129v193h471v-193h-115v-638h381v638h-114v193h469v-193h-127v-638h127v-193h-439l-28 -305h-156l-31 305h-438z" />
<glyph unicode="&#x490;" horiz-adv-x="1230" d="M59 0v193h168v1048h-168v193h895v223h248v-416h-727v-1048h182v-193h-598z" />
<glyph unicode="&#x491;" horiz-adv-x="958" d="M47 0v193h129v638h-129v193h666v176h198v-369h-508v-638h132v-193h-488z" />
<glyph unicode="&#x2000;" horiz-adv-x="898" />
<glyph unicode="&#x2001;" horiz-adv-x="1796" />
<glyph unicode="&#x2002;" horiz-adv-x="898" />
<glyph unicode="&#x2003;" horiz-adv-x="1796" />
<glyph unicode="&#x2004;" horiz-adv-x="598" />
<glyph unicode="&#x2005;" horiz-adv-x="449" />
<glyph unicode="&#x2006;" horiz-adv-x="299" />
<glyph unicode="&#x2007;" horiz-adv-x="299" />
<glyph unicode="&#x2008;" horiz-adv-x="224" />
<glyph unicode="&#x2009;" horiz-adv-x="359" />
<glyph unicode="&#x200a;" horiz-adv-x="99" />
<glyph unicode="&#x2010;" horiz-adv-x="720" d="M111 537v192h499v-192h-499z" />
<glyph unicode="&#x2011;" horiz-adv-x="720" d="M111 537v192h499v-192h-499z" />
<glyph unicode="&#x2012;" horiz-adv-x="720" d="M111 537v192h499v-192h-499z" />
<glyph unicode="&#x2013;" horiz-adv-x="1320" d="M113 537v192h1093v-192h-1093z" />
<glyph unicode="&#x2014;" horiz-adv-x="2056" d="M113 537v192h1831v-192h-1831z" />
<glyph unicode="&#x2018;" horiz-adv-x="505" d="M141 967v227q0 115 74 207t180 135l47 -90q-76 -34 -119.5 -101t-43.5 -151h92v-227h-230z" />
<glyph unicode="&#x2019;" horiz-adv-x="505" d="M66 954q76 36 119.5 102t43.5 150h-94v228h232v-228q0 -114 -74 -205.5t-180 -136.5z" />
<glyph unicode="&#x201a;" horiz-adv-x="505" d="M66 -252q74 34 117.5 101t43.5 151h-92v227h230v-227q0 -115 -74 -207t-180 -135z" />
<glyph unicode="&#x201c;" horiz-adv-x="851" d="M139 967v227q0 115 74 207t180 135l45 -90q-74 -34 -118 -101t-44 -151h93v-227h-230zM485 967v227q0 115 74.5 207t179.5 135l47 -90q-74 -34 -117.5 -101t-43.5 -151h92v-227h-232z" />
<glyph unicode="&#x201d;" horiz-adv-x="851" d="M66 954q75 36 118 102t43 150h-92v228h230v-228q0 -115 -73.5 -206t-180.5 -136zM412 954q76 36 119.5 102t43.5 150h-94v228h232v-228q0 -114 -74 -205.5t-180 -136.5z" />
<glyph unicode="&#x201e;" horiz-adv-x="851" d="M66 -252q74 34 117.5 101t43.5 151h-92v227h230v-227q0 -115 -74 -207t-180 -135zM412 -252q76 34 119.5 101t43.5 151h-94v227h232v-227q0 -115 -74.5 -207t-179.5 -135z" />
<glyph unicode="&#x2022;" horiz-adv-x="823" d="M117 555q0 124 86 210.5t209 86.5t209 -86.5t86 -210.5q0 -123 -86 -209t-209 -86t-209 86t-86 209z" />
<glyph unicode="&#x2026;" horiz-adv-x="1906" d="M240 0v246h249v-246h-249zM827 0v246h250v-246h-250zM1415 0v246h250v-246h-250z" />
<glyph unicode="&#x202f;" horiz-adv-x="359" />
<glyph unicode="&#x2039;" horiz-adv-x="755" d="M111 485v158l436 385l98 -98l-332 -367l332 -364l-98 -99z" />
<glyph unicode="&#x203a;" horiz-adv-x="755" d="M111 199l331 366l-331 365l98 98l436 -385v-158l-436 -385z" />
<glyph unicode="&#x205f;" horiz-adv-x="449" />
<glyph unicode="&#x20ac;" horiz-adv-x="1312" d="M10 469l45 125h88q-6 58 -6 123t4 98h-131l45 125h105q49 234 198 374t379 140q227 0 484 -63v-340h-228v155q-141 29 -262 29q-258 0 -319 -295h491l-45 -125h-463q-2 -33 -2 -98q0 -84 4 -123h359l-43 -125h-297q31 -131 106 -200.5t205 -69.5q119 0 256 28v156h227 v-340q-257 -63 -483 -63q-216 0 -361.5 132.5t-199.5 356.5h-156z" />
<glyph unicode="&#x2122;" horiz-adv-x="1607" d="M88 1317v117h836l161 -476l162 476h213v-676h-141v502l-172 -502h-121l-176 502v-502h-139v559h-250v-559h-146v559h-227z" />
<glyph unicode="&#x25fc;" horiz-adv-x="1024" d="M0 0v1024h1024v-1024h-1024z" />
</font>
</defs>
</svg>
