<?xml version="1.0" standalone="no"?>
<!DOCTYPE svg PUBLIC "-//W3C//DTD SVG 1.1//EN" "http://www.w3.org/Graphics/SVG/1.1/DTD/svg11.dtd" >
<svg xmlns="http://www.w3.org/2000/svg">
<metadata></metadata>
<defs>
<font id="nautilus_pompiliusregular" horiz-adv-x="995" >
<font-face units-per-em="2048" ascent="1536" descent="-512" />
<missing-glyph horiz-adv-x="512" />
<glyph horiz-adv-x="2048" />
<glyph horiz-adv-x="2048" />
<glyph unicode="&#xd;" horiz-adv-x="2048" />
<glyph unicode=" "  horiz-adv-x="512" />
<glyph unicode="&#x09;" horiz-adv-x="512" />
<glyph unicode="&#xa0;" horiz-adv-x="512" />
<glyph unicode="!" horiz-adv-x="569" d="M39 94q3 60 46 102t103 42t100.5 -42t37.5 -102q-5 -60 -48.5 -101.5t-103.5 -41.5t-99.5 41.5t-35.5 101.5zM145 389l199 1036q14 67 63 99t113 32q57 0 98 -26l-288 -1071q-11 -44 -44 -66t-75 -22q-37 0 -66 18z" />
<glyph unicode="&#x22;" horiz-adv-x="720" d="M57 1077q78 89 78 170q0 32 -23.5 83.5t-23.5 88.5q0 56 41 96.5t100 40.5q62 0 104 -43t42 -102q0 -108 -89.5 -227t-185.5 -160q-18 0 -30.5 14.5t-12.5 38.5zM422 1077q78 89 78 170q0 32 -23.5 83.5t-23.5 88.5q0 56 41 96.5t100 40.5q62 0 103.5 -42.5t41.5 -102.5 q0 -108 -89.5 -227t-184.5 -160q-18 0 -30.5 14.5t-12.5 38.5z" />
<glyph unicode="#" horiz-adv-x="1110" d="M23 481q-16 54 10.5 95.5t85.5 41.5h151l66 310h-211q-16 54 10.5 95.5t85.5 41.5h146l96 451q138 -7 115 -123l-70 -328h293l96 451q138 -7 115 -123l-70 -328h215q8 -64 -12 -100.5t-84 -36.5h-150l-65 -310h209q8 -64 -12.5 -100.5t-84.5 -36.5h-143l-106 -497 q-56 -5 -91.5 29.5t-23.5 92.5l80 375h-293l-107 -497q-56 -5 -91 29.5t-23 92.5l80 375h-217zM412 618h293l65 310h-293z" />
<glyph unicode="$" horiz-adv-x="1167" d="M66 373q0 66 21.5 126.5t61 108.5t102.5 76.5t140 28.5q54 0 94.5 -35.5t40.5 -91.5q0 -31 -14 -66q-98 33 -167 -19t-69 -143q0 -88 58 -152.5t158 -64.5q120 0 183.5 81.5t63.5 203.5q0 67 -22.5 125.5t-58.5 103t-80 87t-87.5 87t-79.5 93t-58.5 114.5t-22.5 142 q0 161 108 271.5t277 125.5l30 149q10 49 45.5 72t81.5 23q45 0 70 -19l-63 -239q106 -29 160.5 -106t54.5 -167q0 -83 -45.5 -142t-120.5 -59q-30 0 -66.5 21.5t-52.5 60.5q48 14 76 61t28 101q0 55 -32 93t-93 38q-91 0 -141.5 -72t-50.5 -176q0 -59 23.5 -113.5t61.5 -98 t83.5 -86.5t91 -88t83.5 -93.5t61.5 -112.5t23.5 -135q0 -223 -141.5 -357.5t-364.5 -143.5l-65 -246q-9 -32 -32.5 -48t-53.5 -16q-25 0 -48 15l58 303q-150 31 -230.5 138t-80.5 241z" />
<glyph unicode="%" horiz-adv-x="1585" d="M37 922q0 82 15 166.5t50 168.5t85 149t127.5 105.5t170.5 40.5q79 0 133 -25t82 -72.5t39 -103t11 -130.5q0 -82 -15 -166.5t-50 -169t-85.5 -150t-128 -106.5t-170.5 -41q-79 0 -133 25.5t-81.5 73.5t-38.5 104t-11 131zM244 889q0 -148 88 -148q50 0 89.5 47t62 113 t37 142.5t19.5 128.5t5 79q0 150 -86 150q-50 0 -90 -46t-62.5 -111t-37.5 -141.5t-20 -130t-5 -83.5zM382 30q-26 46 1 101l709 1405q62 0 85.5 -42t-6.5 -105l-708 -1405q-55 0 -81 46zM825 317q0 82 15 166.5t50 168.5t85.5 149.5t128 106t170.5 40.5q79 0 133 -25 t81.5 -73t38.5 -103.5t11 -130.5q0 -82 -15 -166.5t-50 -169t-85 -149.5t-127.5 -106t-170.5 -41q-79 0 -133 25t-82 73.5t-39 104t-11 130.5zM1032 285q0 -148 88 -148q50 0 89.5 47t62 113t37 142.5t19.5 128.5t5 79q0 150 -86 150q-50 0 -90 -46t-62.5 -111t-37.5 -141.5 t-20 -130t-5 -83.5z" />
<glyph unicode="&#x26;" horiz-adv-x="1705" d="M78 383q0 92 36.5 178t112.5 156t181 100q-91 190 -91 352q0 92 46 176t131 137.5t188 53.5q156 0 241 -78.5t85 -206.5q0 -184 -160 -184q-30 0 -66.5 21.5t-52.5 60.5q46 23 71 67.5t25 88.5q0 54 -38.5 85t-98.5 31q-85 0 -133.5 -62t-48.5 -190q0 -170 127 -345 t325 -330q39 112 39 241q0 45 -6 92q-60 -3 -90 -41q-27 35 -27 73t23 69t70.5 51t109.5 20q57 0 145.5 -15t154 -15t122.5 30q25 -32 24.5 -73t-21.5 -75.5t-63 -58.5t-93 -24q-37 0 -75 7t-86.5 20t-72.5 18q14 -82 14 -143q0 -151 -41 -269q233 -154 369 -180 q0 -128 -57.5 -196.5t-120.5 -47.5q-145 50 -330 193q-87 -91 -200.5 -138.5t-231.5 -47.5q-107 0 -192 33t-137 89.5t-79.5 127t-27.5 149.5zM317 416q0 -106 60 -177t174 -71q153 0 270 111q-220 204 -356 432q-70 -50 -109 -130.5t-39 -164.5z" />
<glyph unicode="'" horiz-adv-x="270" d="M-41 1104l82 289q25 73 67 108t91 35q42 0 71 -20l-170 -355q-35 -71 -90 -71q-26 0 -51 14z" />
<glyph unicode="(" horiz-adv-x="778" d="M129 293q0 172 40.5 342t122.5 335t220 314.5t319 261.5q67 -27 76 -88q-154 -132 -262 -286.5t-164.5 -317t-80 -314t-23.5 -317.5q0 -161 48 -321t130 -273q-32 -56 -100 -71q-86 68 -151.5 161.5t-102 193t-54.5 195t-18 185.5z" />
<glyph unicode=")" horiz-adv-x="757" d="M-123 -354q531 453 531 1235q0 161 -48.5 321t-130.5 273q32 56 101 71q86 -68 151.5 -161.5t102 -193t54 -195t17.5 -185.5q0 -172 -40.5 -342t-122.5 -335t-220 -314.5t-319 -261.5q-67 27 -76 88z" />
<glyph unicode="*" horiz-adv-x="997" d="M149.5 996.5q10.5 37.5 53.5 64.5l135 86l-158 135q5 31 30.5 54t61.5 25.5t76 -30.5l94 -86l50 234q47 17 91.5 -18.5t28.5 -106.5l-24 -109l196 129q29 -14 44.5 -44t5 -67.5t-53.5 -64.5l-135 -86l158 -135q-5 -31 -30.5 -54t-61.5 -25.5t-76 30.5l-96 86l-47 -232 q-47 -17 -92 18.5t-29 106.5l22 107l-194 -129q-29 14 -44.5 44t-5 67.5z" />
<glyph unicode="+" horiz-adv-x="1054" d="M155 726q-1 30 11.5 59t45 50t77.5 21h180l63 279q58 21 113 -22.5t35 -129.5l-29 -127h250q15 -23 16 -53.5t-11 -58.5t-44 -47t-78 -19h-174l-61 -293q-21 -15 -50.5 -7.5t-55.5 25t-40 54.5t-4 80l31 141h-258q-16 18 -17 48z" />
<glyph unicode="," horiz-adv-x="485" d="M-43 -242q54 46 83 100t32 100.5t-6 84t-27 61.5q8 57 49.5 96.5t99.5 39.5q62 0 98 -39t36 -99q0 -114 -94 -230.5t-236 -166.5q-19 -6 -32 10.5t-3 42.5z" />
<glyph unicode="-" horiz-adv-x="686" d="M16 535q0 55 50 93t133 38q45 0 121 -9.5t110 -9.5q63 0 113 31q24 -39 24 -74q0 -59 -50 -104t-128 -45q-42 0 -119.5 23.5t-124.5 23.5q-69 0 -102 -41q-27 38 -27 74z" />
<glyph unicode="." horiz-adv-x="532" d="M39 94q3 60 46 102t103 42t100.5 -42t37.5 -102q-5 -60 -48.5 -101.5t-103.5 -41.5t-99.5 41.5t-35.5 101.5z" />
<glyph unicode="/" horiz-adv-x="786" d="M-1 30q-26 46 1 101l709 1405q62 0 85.5 -42t-6.5 -105l-708 -1405q-55 0 -81 46z" />
<glyph unicode="0" horiz-adv-x="1101" d="M41 506q0 94 11.5 191.5t37.5 199t64 194t94 174.5t124 141.5t159 94.5t194 35q91 0 159 -27.5t109 -72.5t66 -114.5t34 -142.5t9 -167t-11.5 -191.5t-37.5 -199t-64 -194t-94 -174.5t-124 -141.5t-159 -94.5t-194 -35q-91 0 -159 27.5t-109 72.5t-66 114.5t-34 142.5 t-9 167zM307 451q0 -157 41.5 -245.5t116.5 -88.5q62 0 115 41.5t90 108t67 155t48 178.5t30 182.5t16.5 162t4.5 122.5q0 157 -41.5 245.5t-116.5 88.5q-62 0 -115 -41.5t-90 -108t-67 -155t-48 -178.5t-30 -182.5t-16.5 -162t-4.5 -122.5z" />
<glyph unicode="1" horiz-adv-x="616" d="M82 0l244 1139q-90 -35 -174 -35q-19 0 -34.5 23t-16.5 51.5t16 54.5q69 15 131.5 45.5t120 78t96 86.5t92.5 99q56 9 100 -22l-301 -1416q-14 -67 -63 -99t-113 -32q-56 0 -98 27z" />
<glyph unicode="2" horiz-adv-x="1019" d="M47.5 149.5q11.5 74.5 42.5 133.5q34 66 90 135t116.5 127.5t126.5 121t124.5 125.5t106 129t75 145t27.5 161q0 90 -48 136t-118 46q-85 0 -137 -54.5t-52 -148.5q0 -42 25 -100q-103 -39 -167 5.5t-64 148.5q0 86 56.5 153t144 100t186.5 33q81 0 154 -22t132.5 -65 t95 -115.5t35.5 -165.5q0 -90 -36 -172t-96 -148t-133.5 -127.5t-152.5 -120.5t-149 -116.5t-127.5 -127t-83.5 -139.5q114 0 185 2t154.5 9t138.5 21.5t108.5 40t93.5 62.5q53 -122 30 -207.5t-87 -131.5t-144 -46q-114 0 -254.5 18t-250.5 44q-26 -24 -67 -32.5t-79 1.5 q-13 67 -1.5 141.5z" />
<glyph unicode="3" horiz-adv-x="1038" d="M43 307q0 57 16 111.5t47.5 100.5t84.5 74t120 28q57 0 98 -41t33 -115q-85 20 -133.5 -23.5t-48.5 -124.5q0 -83 44 -136.5t128 -53.5q111 0 182.5 109t71.5 294q0 274 -262 236q-28 48 -6 108q123 106 211 196t155 196q-28 1 -131 16.5t-180 15.5q-60 0 -127.5 -18.5 t-107.5 -42.5q-41 139 20.5 219t177.5 80q87 0 211.5 -20.5t177.5 -20.5q104 0 205 49q49 -8 72 -45q-37 -154 -168 -316.5t-309 -310.5q88 -8 153.5 -38t102 -75t54 -96.5t17.5 -111.5q0 -148 -64.5 -277.5t-182.5 -209.5t-261 -80q-188 0 -294.5 85t-106.5 238z" />
<glyph unicode="4" horiz-adv-x="1050" d="M41 522q101 105 230.5 338.5t129.5 358.5q0 81 -27 139.5t-75 85.5q77 89 168 92q84 2 128 -40.5t44 -139.5q0 -120 -129.5 -364t-259.5 -374q53 9 112.5 7t87.5 -6t77 -12t81 -11l168 809q14 67 63 99t113 32q57 0 99 -27l-187 -895q42 12 90 37q33 -118 -6 -179.5 t-129 -74.5l-61 -293q-14 -67 -63 -99t-113 -32q-57 0 -99 27l84 401q-30 2 -84 8t-77.5 7.5t-82 3.5t-98.5 -4q-43 -2 -96 -17q-69 38 -88 123z" />
<glyph unicode="5" horiz-adv-x="1042" d="M25 307q0 57 16 111.5t47.5 100.5t84.5 74t120 28q57 0 98 -41t33 -115q-85 20 -133.5 -23.5t-48.5 -124.5q0 -83 44 -136.5t128 -53.5q114 0 184 103t70 300q0 113 -53 187t-160 74q-61 0 -150 -25q-24 5 -51.5 25t-40.5 45l141 698q127 -22 226.5 -30.5t221 1.5 t216.5 49q4 -46 4 -79q0 -109 -51.5 -175.5t-155.5 -66.5q-151 0 -383 49l-86 -391q88 27 174 27q107 0 188.5 -29.5t129.5 -81.5t72 -116t24 -140q0 -148 -64.5 -277.5t-182.5 -209.5t-261 -80q-188 0 -294.5 85t-106.5 238z" />
<glyph unicode="6" horiz-adv-x="1071" d="M43 498q0 120 22.5 245.5t64.5 246t106.5 227t143 187t180 127t212.5 46.5q136 0 197 -58t61 -141q0 -23 -9 -49.5t-28 -54t-57 -41.5t-88 -6q32 223 -115 223q-74 0 -140 -52.5t-115 -143t-84 -200t-56 -233.5q128 115 264 115q177 0 272 -106t95 -265 q0 -82 -21.5 -163.5t-67 -157.5t-108.5 -134t-152.5 -93t-193.5 -35q-96 0 -170.5 40.5t-120.5 112t-69 163.5t-23 200zM313 530q0 -223 38 -314t122 -91q61 0 116.5 70.5t86.5 172t31 197.5q0 94 -49.5 153.5t-149.5 59.5q-82 0 -186 -73q-9 -89 -9 -175z" />
<glyph unicode="7" horiz-adv-x="860" d="M70 1237q-41 141 22 240.5t176 99.5q106 0 191.5 -21.5t158.5 -39t162 -9.5q71 5 164 37q26 -30 34.5 -64.5t-11.5 -62.5q-151 -170 -262.5 -351.5t-172.5 -350.5t-89.5 -319t-28.5 -290q0 -67 -54 -99t-122 -32q-57 0 -99 27q0 135 36 285.5t92.5 285t131.5 267 t148.5 236.5t146.5 188q-83 -3 -195 15.5t-194 18.5q-58 0 -127 -19t-108 -42z" />
<glyph unicode="8" horiz-adv-x="993" d="M43 365q0 146 80.5 264t243.5 192q-67 62 -103.5 129t-36.5 158q0 104 37.5 191.5t99 143t136.5 86t153 30.5q154 0 244.5 -85t93.5 -212q3 -102 -60.5 -205t-182.5 -174q47 -37 81.5 -75t67 -91t49.5 -124t17 -157t-29 -161t-79 -129t-116 -93t-140 -58.5t-150 -19.5 q-123 0 -217 55t-141.5 143t-47.5 192zM291 381q0 -104 47.5 -169t146.5 -65q86 0 146.5 62t60.5 174q0 64 -19 118.5t-56 98t-72.5 75.5t-87.5 72q-10 7 -15 11q-70 -75 -110.5 -174.5t-40.5 -202.5zM473 1202q0 -45 14 -82t46.5 -70.5t58.5 -54t76 -55.5q34 38 63 99.5 t41 128t7.5 125t-40.5 96t-100 36.5q-68 -2 -117 -59.5t-49 -163.5z" />
<glyph unicode="9" horiz-adv-x="1081" d="M53 180q0 18 5 38.5t18.5 44t33 41t52.5 26.5t74 2q-32 -223 114 -223q98 0 181 92t134.5 229t79.5 305q-128 -112 -264 -112q-90 0 -161.5 35t-115 95.5t-66.5 137t-23 164.5q0 73 21.5 146t66.5 140.5t108 120t152.5 84t193.5 31.5q96 0 170.5 -40.5t120.5 -112 t69 -163.5t23 -200q0 -120 -22.5 -245.5t-64.5 -246t-106.5 -227t-143 -187t-180 -127t-212.5 -46.5q-136 0 -197 57.5t-61 140.5zM377 1055q0 -77 19.5 -137t65 -99t113.5 -39q86 0 185 72q10 98 10 176q0 223 -38 314.5t-122 91.5q-57 0 -103 -35.5t-73.5 -92t-42 -121.5 t-14.5 -130z" />
<glyph unicode=":" horiz-adv-x="425" d="M8 211q3 60 46.5 101.5t103.5 41.5t100 -41.5t37 -101.5q-5 -60 -48.5 -101.5t-103.5 -41.5t-99.5 41.5t-35.5 101.5zM86 813q3 60 46.5 101.5t103.5 41.5t100 -41.5t37 -101.5q-5 -60 -48.5 -101.5t-103.5 -41.5t-99.5 41.5t-35.5 101.5z" />
<glyph unicode=";" horiz-adv-x="485" d="M-43 -242q54 46 83 100t32 100.5t-6 84t-27 61.5q8 57 49.5 96.5t99.5 39.5q62 0 98 -39t36 -99q0 -114 -94 -230.5t-236 -166.5q-19 -6 -32 10.5t-3 42.5zM115 813q3 60 46 101.5t103 41.5t100 -41.5t37 -101.5q-5 -60 -48 -101.5t-103 -41.5t-99.5 41.5t-35.5 101.5z " />
<glyph unicode="&#x3c;" horiz-adv-x="688" d="M-10 547q197 176 471 483q38 42 88 49.5t91.5 -12.5t68.5 -55q-272 -300 -484 -469q120 -207 357 -461q-37 -35 -83 -53.5t-93.5 -11.5t-77.5 46q-7 9 -37 48.5t-38.5 50.5t-35.5 47l-37.5 50t-34 46t-35 49.5t-31 46t-32.5 50t-28.5 47t-28.5 49.5z" />
<glyph unicode="=" horiz-adv-x="731" d="M25 530q0 47 35.5 86t99.5 39h465q16 -26 16 -61q0 -47 -34 -82t-99 -35h-465q-18 18 -18 53zM94 858q0 47 35.5 86t99.5 39h465q17 -27 17 -61q0 -47 -34 -82t-99 -35h-465q-19 19 -19 53z" />
<glyph unicode="&#x3e;" horiz-adv-x="688" d="M-20 82q141 154 252.5 265t228.5 204q-116 205 -355 461q37 35 83 53.5t93.5 11t77.5 -46.5q7 -9 46.5 -60.5t48.5 -63.5t42.5 -57t46.5 -63t40 -56.5t42.5 -63t35.5 -57t36 -62.5q-193 -172 -471 -484q-38 -42 -87.5 -49t-91 13t-68.5 55z" />
<glyph unicode="?" horiz-adv-x="722" d="M10 1257q0 133 105.5 226.5t261.5 93.5q89 0 165.5 -33t127.5 -105t51 -171q0 -67 -16 -124t-52 -110t-64.5 -86.5t-82.5 -87.5q-43 -45 -63.5 -67.5t-55 -68t-51 -81.5t-30 -87.5t-13.5 -106.5q0 -54 -48 -77.5t-130 1.5q0 77 12.5 146t27 114.5t45.5 100.5t48.5 80.5 t56.5 78.5q38 50 58 79t45 76.5t36 97.5t11 109q0 71 -32.5 108.5t-78.5 37.5q-73 0 -114.5 -49t-41.5 -117q0 -66 43 -100q-38 -45 -100 -45q-121 0 -121 167zM49 121q3 60 46.5 101.5t103.5 41.5t100 -41.5t37 -101.5q-5 -60 -48.5 -102t-103.5 -42t-99.5 42t-35.5 102z " />
<glyph unicode="@" horiz-adv-x="1331" d="M-74 557q0 125 30.5 238t96 211t159.5 169t228.5 111.5t296.5 40.5q124 0 224 -29t167.5 -79t113 -119t65.5 -145.5t20 -161.5q0 -131 -69.5 -256.5t-196.5 -209t-275 -83.5q-132 0 -135 141q-99 -141 -211 -141q-48 0 -83 23.5t-52 61.5t-24 75.5t-7 76.5 q0 115 41.5 229t116.5 185q91 82 184 82q99 0 132 -72q33 64 112 64q43 0 68 -19l-99 -467q-23 -106 48 -106q70 0 129 59t91.5 152.5t32.5 195.5q0 99 -22.5 177.5t-71 138.5t-130 92.5t-193.5 32.5q-178 0 -310.5 -91.5t-199 -245t-66.5 -345.5q0 -229 117.5 -367.5 t349.5 -138.5q123 0 236 41t166 102q37 -8 52.5 -33t11 -50.5t-20.5 -45.5q-49 -65 -158.5 -104t-278.5 -39q-164 0 -295 48.5t-216 135.5t-130 205.5t-45 259.5zM453 492q0 -40 18.5 -63t48.5 -23q71 0 137 79l76 367q-90 58 -166 -27q-58 -65 -86 -154.5t-28 -178.5z" />
<glyph unicode="A" horiz-adv-x="1325" d="M-78 264q0 154 174 154q59 0 103 -35q-43 -98 -43 -211v-18q53 20 103 63.5t115.5 138t131.5 234t148 363t169 513.5h-41q-129 0 -191.5 -59t-62.5 -141q0 -71 41 -119q-46 -21 -88 -21q-75 0 -120.5 57.5t-45.5 137.5q0 51 19.5 98t59 88t107 65.5t154.5 24.5 q86 0 196.5 -13.5t183.5 -26t163 -16.5q16 -1 30 -1q68 0 105 16q29 -17 29 -53q0 -32 -19.5 -56t-52.5 -24h-8l-233 -1093q-8 -37 -8 -65q0 -87 75 -87q45 0 105.5 33t103.5 70q35 -15 35 -50q0 -23 -19 -45q-90 -91 -184 -146.5t-170 -55.5q-37 0 -70.5 7.5t-65 24.5 t-50.5 45t-27 69q-3 16 -4 35q0 28 8 62l70 332h-230q-133 -307 -258 -441t-262 -134q-79 0 -127.5 73.5t-48.5 206.5zM668 678h204l164 770q-92 10 -112 12q-134 -470 -256 -782z" />
<glyph unicode="B" horiz-adv-x="1275" d="M66 1200q0 82 62.5 154t162 120t221.5 75.5t242 27.5q80 0 143.5 -8t120.5 -28t94.5 -53t59.5 -85.5t22 -122.5q0 -122 -86 -246.5t-236 -204.5l2 -2q154 0 232 -72t78 -188q0 -94 -49.5 -196t-134 -188.5t-211.5 -142.5t-267 -56q-173 0 -293 43t-120 112q0 36 20 65 t61 42q44 -38 95 -66l233 1102q14 67 63 99t113 32q57 0 99 -27l-119 -555q122 37 208.5 166t86.5 258q0 118 -60.5 172t-187.5 54q-103 0 -203 -40t-169.5 -119t-69.5 -177q0 -73 40 -119q-44 -20 -88 -20q-75 0 -120 57t-45 137zM520 115h2q103 0 196 64.5t148.5 167 t55.5 210.5q0 83 -45.5 132.5t-133.5 49.5q-43 0 -92 -12z" />
<glyph unicode="C" d="M51 582q0 193 54.5 375.5t145.5 318.5t218 218.5t264 82.5q72 0 128 -23t89.5 -60.5t50.5 -82.5t17 -94q0 -85 -46.5 -147t-119.5 -62q-32 0 -68.5 21.5t-52.5 60.5q45 18 70 60q24 40 24 80q0 44 -32 76q-31 32 -88 32q-88 0 -172.5 -115t-138.5 -307t-54 -400 q0 -94 16.5 -172t50 -139.5t90.5 -96t132 -34.5q176 0 366 107q35 -15 35 -50q0 -27 -18 -45q-202 -202 -498 -202q-117 0 -207.5 48.5t-145.5 133t-82.5 190t-27.5 226.5z" />
<glyph unicode="D" horiz-adv-x="1415" d="M-74 127q0 72 58 129t155 57q64 0 158 -55q37 60 61 166l183 858q14 67 63 99t113 32q56 0 98 -27l-194 -890q-48 -212 -150 -342q83 -39 158 -39q96 0 178.5 51.5t139.5 136.5t98 195.5t60 228.5t19 236q0 85 -12.5 160t-41.5 141t-71.5 113t-106 74.5t-142.5 27.5 q-119 0 -211.5 -27.5t-148 -74.5t-83.5 -106t-28 -126q0 -73 40 -119q-44 -20 -88 -20q-75 0 -120 57t-45 137q0 78 45.5 145.5t133 119.5t227 82t316.5 30q155 0 273.5 -49t188.5 -134.5t104.5 -193t34.5 -233.5q0 -138 -30.5 -277t-92.5 -266t-148 -225t-205.5 -156.5 t-255.5 -58.5q-138 0 -270 90q-118 -90 -278 -90q-80 0 -131.5 38.5t-51.5 104.5zM49 186q0 -23 20.5 -37t53.5 -14q68 0 123 55q-66 56 -105 56q-41 0 -66.5 -18.5t-25.5 -41.5z" />
<glyph unicode="E" d="M86 389q0 155 96.5 290.5t261.5 186.5q-82 54 -122.5 133t-40.5 170q0 76 30 148.5t84 130.5t139 93.5t187 35.5q167 0 250.5 -73t83.5 -181q0 -89 -47 -152t-121 -63q-30 0 -66.5 21.5t-52.5 60.5q45 13 72.5 57t27.5 94q0 51 -30.5 86t-89.5 35q-113 0 -179.5 -89.5 t-66.5 -209.5q0 -104 53.5 -186t155.5 -107q1 -8 1 -15q0 -33 -22 -62q-97 -7 -170.5 -64.5t-109 -137t-35.5 -165.5q0 -111 62 -186.5t181 -75.5q98 0 197.5 28.5t179.5 88.5q35 -15 35 -50q0 -27 -18 -45q-101 -101 -246.5 -151.5t-292.5 -50.5q-97 0 -173 33t-121.5 90 t-69 128.5t-23.5 153.5z" />
<glyph unicode="F" horiz-adv-x="991" d="M66 1169q0 81 28 147t76 108.5t105.5 74t124 48t123 23.5t110.5 7q67 0 163.5 -11.5t164.5 -19.5q31 -4 67 -4q42 0 92 5q90 10 172 46q12 -48 12 -90q0 -76 -39 -132q-60 -87 -173 -87q-13 0 -27.5 1.5t-32 6t-31 8t-34.5 11.5t-33 12.5t-36.5 15.5t-34 15t-36.5 16.5 t-34 15.5l-115 -536q21 -2 68.5 -9t71 -9t59 3t65.5 19q20 -24 18 -53t-16.5 -54.5t-45.5 -43t-69 -17.5q-27 0 -56.5 5.5t-66 15.5t-55.5 14l-129 -606q-14 -67 -63 -99t-113 -32q-71 0 -108 26l325 1442q-53 -5 -102.5 -28t-90.5 -63t-66 -103t-25 -140q0 -73 40 -119 q-44 -20 -86 -20q-76 0 -121.5 56t-45.5 134z" />
<glyph unicode="G" horiz-adv-x="1171" d="M51 582q0 193 54.5 375.5t145.5 318.5t218 218.5t264 82.5q173 0 246 -120q38 -63 38 -136q0 -33 -7 -67q-21 -100 -88 -145q-36 -24 -78 -24q-30 0 -66.5 21.5t-52.5 60.5q51 30 71 91q10 27 10 53q0 30 -13 57q-24 49 -88 49q-66 0 -132 -67t-117.5 -176t-83.5 -257.5 t-32 -300.5q0 -94 16.5 -172t50 -139.5t90.5 -96t132 -34.5q96 0 176.5 103t93.5 284q-19 -4 -64.5 -17t-79.5 -19.5t-67 -6.5q-51 0 -93 24t-63 59q-22 36 -22 78q0 40 25 71q55 -30 116.5 -30t146 15t138.5 15q51 0 90.5 -19t59 -47.5t19.5 -63.5t-22 -67q-22 22 -59 25 q-12 -152 -60 -269.5t-119.5 -186.5t-155 -103.5t-175.5 -34.5q-117 0 -207.5 48.5t-145.5 133t-82.5 190t-27.5 226.5z" />
<glyph unicode="H" horiz-adv-x="1376" d="M66 1321q0 51 19.5 98t59 88t107 65.5t154.5 24.5q55 0 127 -13.5t120 -25.5q49 -12 105 -16q10 -1 19 -1q41 0 61 15q28 -17 28 -53q0 -32 -19 -56t-52 -24h-19l-117 -542q136 0 312 16l108 508q14 67 63 99t113 32q53 0 99 -27l-254 -1179q-7 -38 -8 -66q0 -33 11 -52 q19 -34 64 -34t105.5 33t103.5 70q35 -15 35 -50q0 -24 -18 -45q-103 -96 -189 -149t-168 -53q-40 0 -72.5 8t-63.5 27.5t-47 53t-22 85.5q-2 14 -2 28q0 42 13 95l108 514q-143 -50 -319 -54l-133 -626q-14 -67 -63 -99t-113 -32q-72 0 -109 26l330 1456h-11 q-129 0 -191 -59t-62 -141q0 -73 40 -119q-47 -21 -88 -21q-75 0 -120 57.5t-45 137.5z" />
<glyph unicode="I" horiz-adv-x="784" d="M66 1321q0 51 19.5 98t59 88t107 65.5t154.5 24.5q55 0 127 -13.5t120 -25.5q49 -12 105 -16q10 -1 19 -1q41 0 61 15q28 -17 28 -53q0 -32 -19 -56t-52 -24h-19l-278 -1308q-14 -67 -63 -99t-113 -32q-72 0 -109 26l330 1456h-11q-129 0 -191 -59t-62 -141 q0 -73 40 -119q-47 -21 -88 -21q-75 0 -120 57.5t-45 137.5z" />
<glyph unicode="J" horiz-adv-x="1097" d="M35 -113q0 116 70 202.5t186 86.5q111 0 153 -63q20 -32 20 -76t-20 -100q-38 36 -96 36q-73 0 -111 -42.5t-38 -100.5q0 -48 37.5 -85.5t99.5 -37.5q93 0 150 101.5t116 367.5l281 1290q-128 0 -190 -59t-62 -141q0 -71 41 -119q-46 -21 -88 -21q-75 0 -120.5 57.5 t-45.5 137.5q0 51 19.5 98t59 88t107 65.5t154.5 24.5q55 0 127 -13.5t120 -25.5t105 -16q10 -1 19 -1q41 0 61 15q29 -17 29 -53q0 -32 -19.5 -56t-52.5 -24q-17 0 -25 2l-280 -1329q-54 -252 -181.5 -380t-322.5 -128q-77 0 -137 25.5t-95 68.5t-53 95t-18 110z" />
<glyph unicode="K" horiz-adv-x="1351" d="M66 1321q0 51 19.5 98t59 88t107 65.5t154.5 24.5q55 0 127 -13.5t120 -25.5q49 -12 105 -16q10 -1 19 -1q41 0 61 15q28 -17 28 -53q0 -32 -19 -56t-52 -24h-19l-133 -628l49 16q69 40 126.5 93.5t99 116t72.5 123t55 134t38 127.5t29 123q31 16 76 16q54 0 97.5 -34.5 t43.5 -88.5q0 -139 -101 -286.5t-280 -290.5q66 -666 244 -666q40 0 84.5 30t75.5 73q30 -13 30 -48q0 -27 -23 -68t-62.5 -82t-102 -70t-131.5 -29q-68 0 -123.5 44.5t-91.5 114t-62.5 167.5t-40.5 191t-22 199l-105 -14l-120 -571q-14 -67 -63 -99t-113 -32q-72 0 -109 26 l330 1456h-11q-129 0 -191 -59t-62 -141q0 -73 40 -119q-47 -21 -88 -21q-75 0 -120 57.5t-45 137.5z" />
<glyph unicode="L" horiz-adv-x="1052" d="M-93 64q-16 31 -16 63q0 36 19 74q39 79 129 103q32 9 67 9q89 0 179 -22q23 55 41 133l221 1049q-115 -3 -176.5 -63.5t-61.5 -158.5q0 -46 29 -106q-52 -12 -92 -12q-14 0 -28 2q-50 6 -80.5 34t-44 63t-13.5 77q0 286 335 286h9q54 0 126.5 -12t120 -22.5t104.5 -12.5 q7 0 13 -1q47 0 68 16q29 -17 29 -54q0 -32 -19.5 -55.5t-52.5 -23.5h-22l-203 -934q-37 -159 -99 -263q172 -53 275 -53q98 0 171.5 30.5t117.5 70.5q34 -15 34 -50q0 -21 -31 -61t-79.5 -82t-120 -73t-141.5 -31q-116 0 -194 30t-142 82q-130 -108 -322 -108 q-111 0 -150 76zM24 210q-9 -13 -9 -25q0 -15 15 -27q21 -17 66 -17q82 0 140 70q-61 35 -127 35q-59 0 -85 -36z" />
<glyph unicode="M" horiz-adv-x="1943" d="M-6 264q0 154 174 154q58 0 102 -35q-43 -98 -43 -211v-18q53 20 103.5 63.5t115.5 138t131.5 234t148.5 363t169 513.5h-10q-129 0 -191.5 -59t-62.5 -141q0 -71 41 -119q-46 -21 -88 -21q-75 0 -120.5 57.5t-45.5 137.5q0 51 19.5 98t59 88t107 65.5t154.5 24.5 q55 0 127 -13.5t120 -25.5q49 -12 105 -16q10 -1 19 -1q41 0 61 15q29 -17 29 -53q0 -32 -19.5 -56t-52.5 -24h-2l-74 -1089l475 1071q53 131 176 131q71 0 113 -27l-168 -1179q-4 -33 -4 -58q1 -40 11 -61q18 -33 61 -33q45 0 105.5 33t103.5 70q34 -15 34 -50 q0 -24 -18 -45q-195 -202 -352 -202q-46 0 -84.5 12t-71.5 38q-32 26 -46 76q-8 28 -7 63q0 25 4 54l137 926l-446 -1049q-26 -67 -69 -93.5t-105 -26.5q-58 0 -99 26l74 908l10 239q-136 -435 -260 -696t-236.5 -369t-238.5 -108q-79 0 -127.5 73.5t-48.5 206.5z" />
<glyph unicode="N" horiz-adv-x="1374" d="M0 264q0 154 174 154q58 0 102 -35q-43 -98 -43 -211v-10q240 154 420 1282l-6 22h-2q-129 0 -191.5 -59t-62.5 -141q0 -71 41 -119q-46 -21 -88 -21q-75 0 -120.5 57.5t-45.5 137.5q0 51 19.5 98t59 88t107 65.5t154.5 24.5q55 0 127 -13.5t120 -25.5q49 -12 105 -16 q10 -1 19 -1q41 0 61 15q29 -17 29 -53q0 -32 -19.5 -56t-52.5 -24h-2l221 -956q99 387 99 668t-109 430q59 53 168 53q135 0 135 -170q0 -345 -157 -897l-160 -557q-29 -10 -53 -10q-61 0 -76 67l-256 1116q-41 -236 -85.5 -423t-90 -314t-91 -216.5t-93 -138.5t-91 -70 t-90.5 -21q-79 0 -127.5 73.5t-48.5 206.5z" />
<glyph unicode="O" horiz-adv-x="1085" d="M6 582q0 113 21 229.5t60.5 227.5t100.5 208.5t136 171t172 116t204 42.5q103 0 182 -42t126.5 -115.5t71.5 -167t24 -203.5q0 -121 -21.5 -246.5t-61.5 -244t-101 -223t-135.5 -182.5t-170.5 -123.5t-200 -45.5q-101 0 -180.5 47.5t-128.5 131t-74 190t-25 229.5z M295 627q0 -81 12.5 -149t37.5 -121t66.5 -83t96.5 -30t111.5 31t110.5 97t96 158t68 226.5t26 290.5q0 176 -58.5 273t-148.5 97q-72 0 -138.5 -49.5t-116 -131t-87 -184t-57 -213t-19.5 -212.5z" />
<glyph unicode="P" horiz-adv-x="1292" d="M66 1200q0 118 96 204.5t256 129.5t362 43q131 0 229.5 -28t156.5 -78t86 -112.5t28 -137.5q0 -135 -50 -250t-135 -192.5t-198.5 -121t-239.5 -43.5h-30l-105 -499q-14 -67 -63 -99t-113 -32q-71 0 -108 26l286 1276q14 65 61.5 96t108.5 31q55 0 97 -27l-144 -675 q163 8 272 145.5t109 347.5q0 122 -71 198.5t-218 76.5q-123 0 -216 -30t-144 -80t-75.5 -106.5t-24.5 -117.5q0 -73 40 -119q-44 -20 -88 -20q-75 0 -120 57t-45 137z" />
<glyph unicode="Q" horiz-adv-x="1114" d="M6 582q0 113 21 229.5t60.5 227.5t100.5 208.5t136 171t172 116t204 42.5q103 0 182 -42t126.5 -115.5t71.5 -167t24 -203.5q0 -195 -51.5 -390t-155 -360t-240.5 -246q48 -112 104 -153t144 -41q80 0 172 67q26 -18 30 -50q1 -7 1 -13q0 -22 -12 -35 q-42 -62 -120.5 -97.5t-154.5 -35.5q-74 0 -126.5 11.5t-102 43t-88.5 89t-74 147.5q-3 0 -8.5 -1t-7.5 -1q-101 0 -180.5 47.5t-128.5 131t-74 190t-25 229.5zM295 627q0 -81 12.5 -149t37.5 -121t66.5 -83t96.5 -30t111.5 31t110.5 97t96 158t68 226.5t26 290.5 q0 176 -58.5 273t-148.5 97q-72 0 -138.5 -49.5t-116 -131t-87 -184t-57 -213t-19.5 -212.5z" />
<glyph unicode="R" horiz-adv-x="1400" d="M66 1200q0 118 96 204.5t256 129.5t362 43q131 0 229.5 -28t156.5 -78t86 -112.5t28 -137.5q0 -140 -88 -283t-229 -231q72 -529 229 -529q45 0 106.5 33t102.5 70q35 -15 35 -50q0 -23 -19 -45q-191 -202 -354 -202q-62 0 -114 37.5t-87 97.5t-62.5 145.5t-43.5 170.5 t-27 183q-46 -4 -72 -4h-28l-107 -499q-14 -67 -63 -99t-113 -32q-71 0 -108 26l288 1276q14 65 61.5 96t108.5 31q55 0 97 -27l-144 -675q76 6 147.5 53.5t121.5 118t80 156t30 165.5q0 122 -71 198.5t-218 76.5q-123 0 -216 -30t-144 -80t-75.5 -106.5t-24.5 -117.5 q0 -73 40 -119q-44 -20 -88 -20q-75 0 -120 57t-45 137z" />
<glyph unicode="S" horiz-adv-x="1167" d="M66 373q0 66 21.5 126.5t61 108.5t102.5 76.5t140 28.5q54 0 94.5 -35.5t40.5 -91.5q0 -31 -14 -66q-38 13 -72 13q-53 0 -95 -32q-69 -52 -69 -143q0 -88 58 -152.5t158 -64.5q120 0 183.5 81.5t63.5 203.5q0 67 -22.5 125.5t-58.5 103t-80 87t-87.5 87t-79.5 93 t-58.5 114.5t-22.5 142q0 172 122.5 285.5t309.5 113.5q84 0 149.5 -26t104.5 -68.5t58.5 -92t19.5 -102.5q0 -83 -45.5 -142t-120.5 -59q-30 0 -66.5 21.5t-52.5 60.5q48 14 76 61t28 101q0 55 -32 93t-93 38q-91 0 -141.5 -72t-50.5 -176q0 -59 23.5 -113.5t61.5 -98 t83.5 -86.5t91 -88t83.5 -93.5t61.5 -112.5t23.5 -135q0 -232 -152.5 -367.5t-388.5 -135.5q-103 0 -185 33.5t-131 90t-75 124.5t-26 141z" />
<glyph unicode="T" horiz-adv-x="954" d="M66 1169q0 81 28 147t76 108.5t105.5 74t124 48t123 23.5t110.5 7q67 0 163.5 -11.5t164.5 -19.5q31 -4 67 -4q42 0 92 5q90 10 172 46q12 -48 12 -90q0 -76 -39 -132q-60 -87 -173 -87q-75 0 -246 76l-264 -1245q-14 -67 -63 -99t-113 -32q-72 0 -109 26l326 1440 q-20 4 -29 4q-56 0 -110.5 -20.5t-101 -60t-75 -106t-28.5 -149.5q0 -73 40 -119q-44 -20 -86 -20q-76 0 -121.5 56t-45.5 134z" />
<glyph unicode="U" horiz-adv-x="1314" d="M66 1321q0 51 19.5 98t59 88t107 65.5t154.5 24.5q55 0 127 -13.5t120 -25.5q49 -12 105 -16q10 -1 19 -1q41 0 61 15q28 -17 28 -53q0 -32 -19 -56t-52 -24h-15l-174 -823q-34 -159 -34 -247q0 -91 31 -125q30 -34 95 -33q86 0 169 104.5t141.5 263t94.5 347t36 354.5 q0 199 -72 303q56 69 147 80q13 1 24 1q52 0 82 -28q38 -36 42 -80q4 -54 4 -80q-1 -118 -29.5 -273.5t-79 -319.5t-124.5 -322.5t-158 -283t-187 -201t-206 -76.5q-110 0 -174 68q-64 70 -80 218q-4 36 -5 77q0 128 39 304l173 815h-3q-129 0 -191 -59t-62 -141 q0 -73 40 -119q-47 -21 -88 -21q-75 0 -120 57.5t-45 137.5z" />
<glyph unicode="V" horiz-adv-x="1372" d="M104 1321q0 51 19.5 98t59 88t107 65.5t154.5 24.5q55 0 127 -13.5t120 -25.5t105 -16q10 -1 20 -1q42 0 61 15q28 -17 28 -53q0 -32 -19 -56t-52 -24h-11l17 -1161l194 369q42 80 79.5 166t72 192t51.5 203q13 73 13 147q0 23 -2 47q-6 98 -40 170q65 62 156 62 q70 0 102.5 -39t32.5 -84q0 -72 -15.5 -153t-51 -175.5t-64 -163t-85.5 -176.5t-81.5 -152.5t-83.5 -150.5l-239 -424q-38 -68 -76 -97.5t-94 -29.5q-71 0 -113 27l-35 1466q-124 -3 -184 -61.5t-60 -138.5q0 -71 41 -119q-46 -21 -88 -21q-75 0 -120.5 57.5t-45.5 137.5z " />
<glyph unicode="W" horiz-adv-x="1937" d="M104 1321q0 51 19.5 98t59 88t107 65.5t154.5 24.5q55 0 127 -13.5t120 -25.5t105 -16q10 -1 20 -1q42 0 61 15q28 -17 28 -53q0 -32 -19 -56t-52 -24h-11l15 -1091l346 1093q19 57 58.5 84t90.5 27q64 0 97 -23l73 -1239l150 373q34 86 62 171t52 193q23 107 31 201 q2 30 3 62q-1 63 -11 127q-16 95 -57 164q24 24 67.5 38.5t87.5 14.5q142 0 142 -168q0 -248 -283 -899l-195 -447q-54 -131 -174 -131q-70 0 -112 27l-72 1077l-309 -973q-54 -131 -174 -131q-71 0 -113 27l-37 1466q-124 -3 -184 -61.5t-60 -138.5q0 -71 41 -119 q-46 -21 -88 -21q-75 0 -120.5 57.5t-45.5 137.5z" />
<glyph unicode="X" horiz-adv-x="1269" d="M-20 264q0 154 174 154q58 0 102 -35q-43 -98 -43 -211v-16q91 42 210 174.5t245 361.5l-164 772q-110 -10 -162.5 -66.5t-52.5 -131.5q0 -71 41 -119q-47 -21 -88 -21q-75 0 -120.5 57.5t-45.5 137.5q0 51 19.5 98t59 88t107 65.5t154.5 24.5q55 0 127 -13.5t120 -25.5 q49 -12 105 -16q10 -1 19 -1q41 0 61 15q29 -17 29 -53q0 -32 -19.5 -56t-52.5 -24h-6l104 -505q101 139 147 308q35 127 35 255q0 42 -4 84q73 53 136 53q34 0 59 -12.5t36.5 -32t16 -37.5t4.5 -35q0 -110 -31 -210.5t-91 -188.5t-126 -158.5t-157 -148.5l110 -533 q16 -84 78 -84q45 0 106.5 33t102.5 70q35 -15 35 -50q0 -23 -19 -45q-191 -202 -354 -202q-77 0 -133.5 47.5t-75.5 140.5l-73 344q-145 -256 -288 -394t-261 -138q-79 0 -127.5 73.5t-48.5 206.5z" />
<glyph unicode="Y" horiz-adv-x="1331" d="M139 1321q0 51 19.5 98t59 88t107 65.5t154.5 24.5q55 0 127 -13.5t120 -25.5t104 -16q11 -1 20 -1q41 0 61 15q29 -17 29 -53q0 -32 -19.5 -56t-52.5 -24h-6l156 -645q135 198 187 388q32 118 32 243q0 77 -12 156q53 53 135 53q65 0 93 -39q25 -34 25 -68q0 -5 -1 -10 q-17 -193 -140 -431.5t-282 -440.5l-107 -498q-16 -76 -70.5 -111.5t-125.5 -35.5q-63 0 -111 30l135 619l-213 831q-107 -11 -159 -67.5t-52 -130.5q0 -71 41 -119q-46 -21 -88 -21q-75 0 -120.5 57.5t-45.5 137.5z" />
<glyph unicode="Z" horiz-adv-x="974" d="M-180 127q0 72 58 129t155 57q71 0 166 -18q13 20 34 63l521 1033h-35q-49 -1 -127 1q-61 1 -106 2q-36 0 -61 -1q-57 -2 -135.5 -23.5t-139.5 -66.5q-54 60 -54 124q0 73 47.5 121.5t141.5 48.5q119 0 347.5 -36.5t360.5 -36.5q31 0 60.5 9.5t42.5 22.5q34 -11 34 -53 q0 -32 -23.5 -61.5t-68.5 -34.5l-506 -1004q-56 -108 -108 -174q160 -49 262 -49q98 0 171.5 30.5t117.5 70.5q35 -15 35 -50q0 -21 -31 -61t-80 -82t-120.5 -73t-141.5 -31q-118 0 -195 31t-143 85q-144 -116 -299 -116q-81 0 -130.5 36t-49.5 107zM-57 186 q0 -22 19.5 -36.5t55.5 -14.5q69 0 132 82q-60 29 -115 29q-41 0 -66.5 -18.5t-25.5 -41.5z" />
<glyph unicode="[" horiz-adv-x="864" d="M63.5 -231q2.5 31 8.5 67q34 160 175.5 730t182.5 816q-65 21 -65 101q0 65 42.5 95t108.5 30q71 0 96 -74q9 0 72.5 23.5t99.5 23.5q52 0 90.5 -22t56 -54.5t15 -73t-27.5 -75.5q-54 30 -138 30q-67 0 -153 -8q-39 -215 -165 -759t-161 -719q90 28 139 28q41 0 77 -15.5 t58.5 -41t34.5 -55t8 -61.5t-24 -58q-52 30 -122 30t-164 -15t-146 -15q-54 0 -77.5 20.5t-21 51.5z" />
<glyph unicode="]" horiz-adv-x="823" d="M-121.5 -126.5q2.5 40.5 27.5 75.5q56 -31 137 -31q64 0 154 8q39 216 164 762.5t159 716.5q-93 -29 -137 -29q-41 0 -77 15.5t-58.5 41t-34.5 55.5t-8 62t24 58q52 -30 122.5 -30t164.5 15t146 15q54 0 77.5 -20.5t21 -52t-8.5 -67.5q-34 -161 -176.5 -730.5 t-184.5 -815.5q68 -21 68 -100q0 -65 -43 -95t-109 -30q-71 0 -96 74q-9 0 -72.5 -23.5t-99.5 -23.5q-52 0 -90.5 22t-55.5 54.5t-14.5 73z" />
<glyph unicode="_" horiz-adv-x="1015" d="M25 -4q0 47 35.5 86t99.5 39h786q17 -27 17 -62q0 -47 -34.5 -81.5t-99.5 -34.5h-786q-18 18 -18 53z" />
<glyph unicode="a" horiz-adv-x="1073" d="M-23 328q0 178 69 342.5t189.5 268t258.5 103.5q135 0 211 -67q50 59 139 59q55 0 96 -26l-143 -678q-9 -39 -9 -69q0 -83 70 -83q54 0 113.5 30.5t101.5 72.5q35 -15 35 -50q0 -24 -18 -45q-75 -85 -174.5 -143.5t-180.5 -58.5q-83 0 -137 47t-53 159 q-68 -95 -148 -150.5t-164 -55.5q-61 0 -108 23.5t-74.5 59.5t-44.5 84t-23 90.5t-6 86.5zM231 342q0 -73 30.5 -110t80.5 -37t108 36t99 93l115 548q-50 17 -97 17q-88 0 -156 -53t-105.5 -138t-56 -175.5t-18.5 -180.5z" />
<glyph unicode="b" horiz-adv-x="931" d="M-21 319q1 100 27 220l148 686q9 40 -13 49t-47 -21q-31 29 -31 64q0 23 41 57.5t103.5 61t114.5 26.5q102 0 102 -79q0 -15 -4 -33l-96 -476q135 160 280 160q119 0 187.5 -85.5t68.5 -233.5q0 -127 -58 -260.5t-148.5 -236t-208 -168.5t-228.5 -66q-82 0 -136.5 42 t-78.5 118q-23 72 -23 167v8zM225 340q0 -145 101 -145q71 0 135 68.5t102.5 178.5t38.5 228q0 81 -30 119t-80 38t-105 -33.5t-98 -88.5q-64 -282 -64 -365z" />
<glyph unicode="c" horiz-adv-x="849" d="M-23 350q0 118 39.5 241t106.5 223t166.5 164t210.5 64q248 0 248 -198q0 -82 -41.5 -125t-102.5 -43q-49 0 -82 29q33 70 33 133q0 59 -76 59q-43 0 -87 -39.5t-80 -106t-58.5 -164t-22.5 -204.5q0 -115 53.5 -168t143.5 -53q108 0 232.5 66t191.5 155q38 7 54 -17 q7 -11 7 -24q0 -14 -10 -29q-103 -152 -263.5 -240.5t-313.5 -88.5q-154 0 -251.5 93t-97.5 273z" />
<glyph unicode="d" horiz-adv-x="1069" d="M-23 328q0 178 69 342.5t189.5 268t258.5 103.5q124 0 196 -57l51 240q9 40 -12.5 49t-46.5 -21q-31 29 -31 64q0 23 40.5 57.5t103 61t114.5 26.5q59 0 85 -28q18 -19 18 -51q0 -15 -4 -33l-215 -1020q-9 -39 -9 -69q0 -83 70 -83q54 0 113.5 30.5t101.5 72.5 q35 -15 35 -50q0 -23 -19 -45q-75 -85 -174 -143.5t-180 -58.5q-83 0 -135 47t-51 159q-68 -95 -148 -150.5t-164 -55.5q-61 0 -108 23.5t-74.5 59.5t-44.5 84t-23 90.5t-6 86.5zM231 342q0 -73 30.5 -110t80.5 -37t108 36t99 93v-2l117 548q-55 19 -99 19q-88 0 -156 -53 t-105.5 -138t-56 -175.5t-18.5 -180.5z" />
<glyph unicode="e" horiz-adv-x="849" d="M-23 350q0 68 15 144t43 153.5t73 148.5t100 126t129 87.5t155 32.5q67 0 114.5 -17t72 -47t35.5 -62t11 -70q0 -69 -21 -126.5t-74 -122t-149.5 -134t-242.5 -150.5q27 -151 190 -151q108 0 232.5 66t191.5 155q38 7 54 -17q7 -11 7 -24q0 -14 -10 -29 q-103 -152 -263.5 -240.5t-313.5 -88.5q-154 0 -251.5 93t-97.5 273zM231 401q155 98 244.5 202t89.5 200q0 35 -16.5 57.5t-42.5 22.5q-58 0 -106 -37t-77.5 -91.5t-50.5 -122.5t-30 -125.5t-11 -105.5z" />
<glyph unicode="f" horiz-adv-x="512" d="M-580 -549q0 26 18.5 40.5t49.5 14.5q24 -112 141 -112q35 0 63.5 15t53.5 50t45.5 80.5t42.5 118.5t41 151t43 191l195 905h-103q-2 13 -2 24q0 35 18 61q24 34 70 34h41l17 74q42 195 159.5 309.5t266.5 114.5q258 0 258 -199q0 -82 -42 -127q-39 -41 -94 -41h-8 q-43 3 -82 29q33 70 33 133q0 59 -76 59q-116 0 -178 -291l-14 -61h158q2 -13 2 -24q0 -36 -18 -61q-24 -34 -70 -34h-97l-194 -905q-38 -176 -72 -295.5t-77 -219.5t-93.5 -156.5t-117 -86.5t-152.5 -30q-100 0 -163 58.5t-63 180.5z" />
<glyph unicode="g" horiz-adv-x="1021" d="M-109 -537q0 73 36 144.5t94 130t137.5 111.5t160.5 93t168 72q8 30 25 89t20 71q-141 -190 -299 -190q-61 0 -108 23.5t-74.5 59.5t-44.5 84t-23 90.5t-6 86.5q0 178 69 342.5t189.5 268t258.5 103.5q132 0 208 -67q50 59 142 59q55 0 96 -26l-172 -811q-9 -43 -18 -84 q192 94 292 178q26 -22 26 -53q0 -27 -24 -50q-33 -29 -127.5 -87t-193.5 -105q-22 -90 -43 -164t-52 -157.5t-64.5 -148t-78.5 -125.5t-96 -101t-116.5 -64t-139.5 -24q-101 0 -171.5 65t-70.5 186zM31 -510q0 -48 28.5 -72t55.5 -24q103 0 176 109t153 368 q-176 -70 -294.5 -176t-118.5 -205zM231 342q0 -73 30.5 -110t80.5 -37t108 36t99 93l115 548q-50 17 -97 17q-88 0 -156 -53t-105.5 -138t-56 -175.5t-18.5 -180.5z" />
<glyph unicode="h" horiz-adv-x="974" d="M-80 4l260 1221q9 40 -12.5 49t-46.5 -21q-31 29 -31 64q0 23 40.5 57.5t103 61t114.5 26.5q102 0 102 -79q0 -15 -4 -33l-106 -502q131 186 272 186q27 0 53 -5.5t53.5 -19t47 -35.5t34.5 -56q16 -35 15 -82q0 -44 -10 -103l-100 -471q-3 -15 -3 -28q0 -22 10 -35 q16 -21 48 -21q54 0 113.5 30.5t101.5 72.5q35 -15 35 -50q0 -23 -19 -45q-78 -89 -175.5 -145.5t-194.5 -56.5q-33 0 -60.5 7t-54.5 26t-40 51q-14 33 -18 84q-1 11 0 22q0 44 13 100l86 408q9 31 9 57q0 15 -3 29q-9 36 -55 35q-100 0 -191 -109l-129 -581 q-14 -66 -62 -97.5t-110 -31.5q-55 0 -86 20z" />
<glyph unicode="i" horiz-adv-x="507" d="M-32 110q-4 21 -4 46q0 32 7 71l119 570q9 51 -20 51q-13 0 -41 -25q-23 13 -25 50q0 3 -1 6q0 33 26 57q125 98 229 98q102 0 102 -79q0 -15 -4 -33l-125 -592q-9 -39 -9 -68q0 -84 71 -84q54 0 113.5 30.5t101.5 72.5q35 -15 35 -50q0 -23 -19 -45 q-78 -89 -175.5 -145.5t-194.5 -56.5q-41 0 -77 12t-67.5 40t-41.5 74zM158 1298q6 60 50.5 102t104.5 42q61 0 99 -42q33 -36 33 -86q0 -8 -1 -16q-9 -61 -54.5 -102t-104.5 -41q-61 0 -99 42q-30 34 -30 79q0 11 2 22z" />
<glyph unicode="j" horiz-adv-x="468" d="M-702 -537q0 63 22 118.5t61.5 100.5t95 87t123.5 78.5t145 73t161 74.5q5 2 8 3q27 99 51 219l125 580q9 51 -20 51q-13 0 -41 -25q-23 13 -25 50q-1 3 -1 6q0 33 26 57q125 98 229 98q102 0 102 -79q0 -15 -4 -33l-155 -725q-3 -17 -10 -46.5t-9 -37.5q195 95 293 178 q26 -22 26 -53q0 -27 -24 -50q-33 -29 -127.5 -87t-193.5 -105q-22 -89 -44.5 -164t-54 -157.5t-66.5 -147.5t-82 -126t-100 -101t-120.5 -64t-143.5 -24q-44 0 -87 16t-79.5 45.5t-58.5 79t-22 110.5zM-537 -510q0 -48 28.5 -72t55.5 -24q102 0 181.5 113.5t150.5 357.5 q-84 -42 -138 -71t-112.5 -67.5t-91 -72.5t-53.5 -76t-21 -88zM162 1298q3 60 46 102t103 42t101 -42q37 -39 37 -94v-8q-5 -60 -48.5 -101.5t-103.5 -41.5t-99 41q-36 38 -36 91v11z" />
<glyph unicode="k" horiz-adv-x="874" d="M-78 10l256 1215q6 24 0 37.5t-20 13.5q-13 0 -41 -25q-23 13 -25 50q0 3 -1 6q0 33 26 57q125 98 229 98q101 0 101 -82q0 -14 -3 -30l-168 -785l41 10q199 59 199 238q0 82 -29 127q21 42 64 68t96 26q60 0 87.5 -35.5t27.5 -120.5q0 -114 -74 -204q-74 -92 -182 -142 q9 -38 17.5 -67t23 -72.5t32 -74.5t40.5 -61t52.5 -46t63.5 -16q28 0 60 21.5t79 64.5q35 -15 35 -50q0 -24 -18 -45q-61 -75 -151 -138.5t-150 -63.5q-47 0 -86.5 22t-67.5 62.5t-49.5 84.5t-37.5 102.5t-25 100.5t-19 93q-3 15 -4 22l-47 -12l-74 -346 q-13 -66 -58.5 -97.5t-103.5 -31.5q-55 0 -96 26z" />
<glyph unicode="l" horiz-adv-x="661" d="M-14 287q24 191 51 345t60.5 288.5t73 232.5t87 168.5t104.5 105.5t123 35q74 0 119 -44t45 -122q0 -125 -103 -361.5t-294 -528.5q-8 -49 -10 -76q-2 -18 -2 -34q0 -50 23 -78q31 -36 89 -36q56 0 122.5 29t120.5 79.5t73 104.5q28 4 44 -22q9 -15 10 -32q0 -12 -5 -24 q-53 -136 -207 -234.5t-299 -98.5q-116 0 -180 75q-49 58 -49 162q0 31 4 66zM279 588q120 223 188 424t68 270q0 25 -8.5 35t-26.5 10q-49 0 -108 -201.5t-113 -537.5z" />
<glyph unicode="m" horiz-adv-x="1460" d="M-78 10l168 787q6 24 0 37.5t-20 13.5q-13 0 -41 -25q-23 13 -25 50q0 3 -1 6q0 33 26 57q125 98 229 98q58 0 84 -28q18 -18 18 -50q0 -16 -4 -34l-20 -93q142 205 303 205q71 0 123 -55q49 -51 49 -142v-14q148 211 307 211q30 0 58 -8.5t57.5 -28.5t45.5 -55 q17 -34 23 -86q2 -14 1 -28q0 -42 -13 -95l-100 -471q-3 -15 -3 -28q-1 -22 9 -35q16 -21 49 -21q54 0 113.5 30.5t101.5 72.5q35 -15 35 -50q0 -24 -18 -45q-78 -88 -176 -145t-195 -57q-33 0 -60.5 7t-54.5 26t-40 51.5t-17 83.5q-1 11 -1 22q0 44 13 100l86 408 q10 32 10 58q0 16 -3 28q-9 36 -56 35q-91 0 -178 -94l-127 -596q-14 -66 -62 -97.5t-110 -31.5q-55 0 -96 26l143 672q9 31 9 57q0 15 -3 29q-9 36 -55 35q-100 0 -189 -107l-125 -583q-14 -66 -62 -97.5t-110 -31.5q-55 0 -96 26z" />
<glyph unicode="n" horiz-adv-x="980" d="M-78 10l168 787q6 24 0 37.5t-20 13.5q-13 0 -41 -25q-23 13 -25 50q0 3 -1 6q0 33 26 57q125 98 229 98q58 0 84 -28q18 -18 18 -50q0 -16 -4 -34l-20 -93q65 93 156 149t180 56q88 0 130 -74q23 -42 24 -108q0 -52 -15 -119l-100 -471q-3 -15 -3 -28q0 -22 10 -35 q16 -21 48 -21q54 0 113.5 30.5t101.5 72.5q35 -15 35 -50q0 -23 -19 -45q-78 -89 -175.5 -145.5t-194.5 -56.5q-33 0 -60.5 7t-54.5 26t-40 51q-14 33 -18 84q-1 11 0 22q0 44 13 100l86 408q6 27 6 48q0 26 -9 43q-16 30 -52 30q-40 0 -94 -32.5t-89 -74.5l-125 -583 q-14 -66 -62 -97.5t-110 -31.5q-55 0 -96 26z" />
<glyph unicode="o" horiz-adv-x="927" d="M-25 346q0 93 24.5 191t72 187.5t110 161t145.5 114t173 42.5q81 0 143 -28.5t99.5 -79.5t56 -116t18.5 -142q0 -92 -25 -189t-73.5 -186.5t-112.5 -160.5t-150.5 -113.5t-179.5 -42.5q-77 0 -136 29t-94 80t-53 115t-18 138zM238 412q0 -127 37 -188.5t96 -61.5 q77 0 146.5 88t108 210.5t38.5 231.5q0 88 -29.5 141.5t-89.5 53.5q-67 0 -126 -46t-97.5 -116.5t-61 -153.5t-22.5 -159z" />
<glyph unicode="p" horiz-adv-x="974" d="M-233 -745l323 1542q6 24 0 37.5t-20 13.5q-13 0 -41 -25q-23 13 -25 50q-1 3 -1 6q0 33 26 57q125 98 229 98q58 0 84 -28q18 -18 18 -50q0 -15 -4 -34l-10 -50q132 162 279 162q87 0 147 -46.5t86.5 -121t26.5 -170.5q0 -117 -41.5 -241t-113.5 -229.5t-182.5 -173.5 t-236.5 -68q-79 0 -141 53l-141 -680q-14 -66 -59.5 -97.5t-106.5 -31.5q-54 0 -96 27zM197 164q43 -23 102 -23q75 0 140 46.5t106 118.5t64.5 155.5t23.5 161.5q0 103 -33 154.5t-88 51.5q-97 0 -203 -131z" />
<glyph unicode="q" horiz-adv-x="1007" d="M-23 328q0 178 69 342.5t189.5 268t258.5 103.5q132 0 208 -67q45 59 136 59q55 0 96 -26l-350 -1651q-14 -66 -59.5 -97.5t-106.5 -31.5q-54 0 -96 27l188 892q-133 -163 -277 -163q-61 0 -108 23.5t-74.5 59.5t-44.5 84t-23 90.5t-6 86.5zM231 342q0 -73 30.5 -110 t80.5 -37q49 0 106.5 35.5t98.5 91.5l117 550q-50 17 -97 17q-88 0 -156 -53t-105.5 -138t-56 -175.5t-18.5 -180.5z" />
<glyph unicode="r" horiz-adv-x="759" d="M-78 10l168 787q9 51 -20 51q-13 0 -41 -25q-23 13 -25 50q0 3 -1 6q0 33 26 57q125 98 229 98q102 0 102 -79q0 -15 -4 -33l-22 -111q110 223 264 223q70 0 110 -47.5t40 -114.5q0 -75 -44.5 -133.5t-119.5 -58.5q-36 0 -60 8q23 20 23 64q0 23 -16.5 37t-47.5 14 q-144 0 -268 -565l-25 -125q-14 -66 -62 -97.5t-110 -31.5q-55 0 -96 26z" />
<glyph unicode="s" horiz-adv-x="786" d="M-96 254q11 67 57 112.5t117 45.5q49 0 82 -29q-43 -49 -43 -129q0 -66 37.5 -100.5t91.5 -34.5q62 0 112 46t50 118q0 36 -25 66t-62.5 50t-81.5 49.5t-81.5 61.5t-62.5 88.5t-25 128.5q0 63 21.5 118.5t63.5 100t110.5 70.5t154.5 26q258 0 258 -198q0 -83 -42 -127 q-39 -41 -93 -41h-8q-43 3 -82 29q34 43 34 110q0 54 -26.5 82.5t-65.5 28.5q-46 0 -82.5 -44t-36.5 -122q0 -44 18.5 -78t48 -57t65.5 -43t72 -42t65.5 -48.5t48 -67.5t18.5 -94q0 -159 -102 -252.5t-317 -93.5q-155 0 -231 80q-61 65 -61 149q0 20 3 41z" />
<glyph unicode="t" horiz-adv-x="514" d="M-18 287l131 618h-103q-2 13 -2 24q0 35 18 61q24 34 70 34h41l37 168q14 66 62 97.5t110 31.5q54 0 96 -27l-57 -270h150q2 -13 2 -24q0 -35 -18 -61q-24 -34 -70 -34h-91l-120 -575q-9 -39 -9 -69q0 -83 70 -83q54 0 113.5 30.5t101.5 72.5q35 -15 35 -50 q0 -23 -19 -45q-76 -86 -183 -144t-206 -58q-102 0 -147 72q-26 42 -26 112q0 52 14 119z" />
<glyph unicode="u" horiz-adv-x="1013" d="M-22 276q4 50 16 101l96 420q6 24 0 37.5t-20 13.5q-13 0 -41 -25q-23 13 -25 50q0 3 -1 6q0 33 26 57q125 98 229 98q58 0 84 -28q18 -18 18 -50q0 -16 -4 -34l-125 -582q-6 -26 -5 -46q0 -75 75 -75q99 0 188 107l123 579q14 66 62 97.5t110 31.5q56 0 97 -26 l-144 -678q-9 -39 -9 -68q0 -84 71 -84q54 0 113.5 30.5t101.5 72.5q35 -15 35 -50q0 -23 -19 -45q-75 -85 -174 -143.5t-180 -58.5q-40 0 -73.5 11.5t-62.5 36.5q-29 26 -44 72q-12 37 -12 84q0 13 1 27q-142 -231 -299 -231q-65 0 -110 26.5t-66 67.5q-20 40 -28 94 q-5 36 -5 69q0 18 1 35z" />
<glyph unicode="v" horiz-adv-x="860" d="M4 873q0 3 -1 6q0 33 26 57q125 98 229 98q58 0 84 -28q18 -18 18 -50q0 -16 -4 -34q-29 -136 -41 -263q-6 -68 -7 -136q0 -59 6 -119q10 -128 51 -207q116 92 187 238t71 292q0 107 -32.5 188t-94.5 109q3 76 43 118q38 40 89 40h5q66 -2 116 -62t50 -166 q0 -136 -36.5 -280t-96.5 -264.5t-132 -218t-149.5 -152.5t-142.5 -55q-62 0 -105.5 63.5t-62.5 161.5q-20 97 -24 211q-1 31 -1 62q0 82 9 158q12 106 34 177q3 12 -3 21.5t-19 9.5t-41 -25q-23 13 -25 50z" />
<glyph unicode="w" horiz-adv-x="1370" d="M0 889q0 23 40.5 57.5t103 61t114.5 26.5q102 0 102 -79q0 -15 -4 -33q-49 -225 -49 -416q0 -196 58 -309q88 87 141.5 247.5t109.5 460.5q13 66 61.5 97.5t110.5 31.5q60 0 97 -26q-72 -332 -72 -504q0 -176 61 -307q117 92 188 238.5t71 291.5q0 107 -32.5 188 t-94.5 109q3 76 43 118q38 40 89 40h5q66 -2 116 -62t50 -166q0 -136 -36.5 -280t-96.5 -264.5t-132 -218t-149.5 -152.5t-142.5 -55q-135 0 -158 395q-82 -184 -176 -289.5t-176 -105.5q-50 0 -88.5 41.5t-60.5 112t-33 154t-11 177.5q0 214 43 348q4 14 -3 22.5t-19 8.5 q-19 0 -39 -23q-31 29 -31 64z" />
<glyph unicode="x" horiz-adv-x="983" d="M-102 213q0 127 143 127q41 0 84 -29q-35 -76 -35 -161q74 42 141 108t154 207l-43 346q-3 28 -19.5 46.5t-42.5 23.5q-7 1 -14 1q-21 0 -49 -10q-37 -14 -76 -49q-26 23 -26 56q0 29 26 57q122 106 219 106q104 0 154 -61t68 -199l18 -145q158 183 158 291q0 39 -28 68 q-27 28 -79 28h-4q3 75 42.5 116.5t94.5 41.5q37 0 68 -10.5t59 -34t39 -71.5q6 -24 6 -52t-6 -60q-18 -101 -96.5 -199.5t-239.5 -236.5l19 -145q24 -195 135 -195q54 0 113.5 30.5t101.5 72.5q35 -15 35 -50q0 -23 -19 -45q-75 -85 -174 -143.5t-180 -58.5q-98 0 -156 69 t-86 250q-220 -319 -360 -319q-65 0 -105 60t-40 169z" />
<glyph unicode="y" horiz-adv-x="940" d="M-219 -537q0 54 17 103t45 89t74 79t93.5 70t115 65.5t127.5 62.5t141 64q3 1 5 2q6 22 20 74t23 82q-134 -168 -274 -168q-59 0 -100 23t-61 60t-27 89q-5 32 -5 65q0 20 1 40q5 53 18 114l96 420q6 24 0 37.5t-20 13.5q-13 0 -41 -25q-23 13 -25 50q-1 3 -1 6 q0 33 26 57q125 98 229 98q58 0 84 -28q18 -18 18 -50q0 -15 -4 -34l-127 -590q-4 -20 -4 -38q0 -25 9 -44q17 -31 65 -31q81 0 158 74l133 612q14 66 62 97.5t110 31.5q55 0 96 -26l-174 -811q-9 -43 -18 -84q192 94 292 178q26 -23 26 -54q0 -27 -23 -49q-32 -29 -127 -87 t-195 -105q-22 -89 -44 -164t-54 -157.5t-66.5 -147.5t-81.5 -126t-100 -101t-120.5 -64t-143.5 -24q-44 0 -87.5 16t-79.5 45.5t-58.5 79t-22.5 110.5zM-53 -510q0 -48 28.5 -72t55.5 -24q103 0 174.5 106.5t152.5 362.5q-104 -51 -169 -88t-125.5 -83.5t-88.5 -95.5 t-28 -106z" />
<glyph unicode="z" horiz-adv-x="804" d="M-44 43q-17 29 -16 63q0 34 17 72q54 25 100 33q148 297 430 637q-44 -7 -93 -7t-104 3.5t-79 3.5q-100 0 -131 -43q-27 43 -27 90q0 66 43.5 113t114.5 47q63 0 156 -36t139 -36q67 0 131 35q43 -22 72 -52t61 -87q-125 -128 -251 -319.5t-214 -373.5q3 -1 33 -9.5 t36.5 -10.5t32 -8.5t37.5 -8.5t32.5 -6t38 -5t34.5 -1q65 0 136.5 42.5t119.5 101.5q35 -15 35 -50q0 -23 -19 -45q-189 -202 -375 -202q-26 0 -59.5 8t-59.5 17.5t-70 27t-71 26.5q-46 -79 -110 -79q-86 0 -120 59z" />
<glyph unicode="{" horiz-adv-x="792" d="M49 561q6 41 45.5 75t118.5 34q47 0 96 -21q65 50 84 180q13 94 15.5 233t5.5 163q6 51 20 97.5t41 94t63.5 82.5t91.5 56.5t122 21.5q64 0 109.5 -6.5t71.5 -18t37.5 -28.5t9 -36.5t-16.5 -43.5q-96 26 -156 26q-76 0 -115 -52.5t-51 -182.5l-25 -283 q-12 -126 -63 -222.5t-152 -139.5q97 -67 84 -180q-13 -89 -54 -188.5t-81 -195t-51 -176.5q-21 -149 143 -149q81 0 203 39q26 -84 -62 -130t-255 -46q-156 0 -211 77.5t-35 217.5q7 54 38.5 132.5t65.5 144.5t65 139t36 116q13 93 -37 109q-43 -37 -105 -37q-53 0 -77 30 t-19 68z" />
<glyph unicode="|" horiz-adv-x="632" d="M100 -205l367 1721q138 -7 115 -123l-367 -1721q-56 -5 -91.5 30t-23.5 93z" />
<glyph unicode="}" horiz-adv-x="792" d="M-190.5 -346.5q2.5 19.5 16.5 43.5q100 -27 156 -27q76 0 114.5 53t50.5 183l25 282q10 124 62 222t153 141q-100 63 -84 180q10 71 38 149.5t56.5 136.5t55.5 133t36 140q21 150 -143 150q-81 0 -203 -39q-26 84 62 130t256 46q156 0 211 -77.5t35 -217.5 q-7 -54 -38.5 -132.5t-65.5 -144.5t-65 -139t-36 -116q-13 -93 35 -111q42 39 106 39q53 0 77 -30t19 -68q-6 -41 -45.5 -75t-118.5 -34q-53 0 -98 18q-67 -54 -82 -178q-13 -94 -15 -232.5t-5 -162.5q-6 -51 -20 -97.5t-41 -94t-63.5 -82.5t-91.5 -56.5t-122 -21.5 q-64 0 -109.5 6.5t-71.5 18t-37.5 28.5t-9 36.5z" />
<glyph unicode="~" horiz-adv-x="720" d="M33 543q0 56 44 110t120 54q49 0 113 -16t105.5 -28.5t87.5 -2.5t79 53q61 -37 61 -117q0 -66 -46 -115t-108 -49q-46 -2 -142 45.5t-142 46.5q-37 0 -69.5 -19t-49.5 -54q-53 23 -53 92z" />
<glyph unicode="&#xa8;" horiz-adv-x="829" d="M109 1315q0 54 36.5 90.5t90.5 36.5t90 -36.5t36 -90.5t-36 -90.5t-90 -36.5t-90.5 36.5t-36.5 90.5zM512 1315q0 54 37 90.5t90 36.5q54 0 90.5 -36.5t36.5 -90.5t-36.5 -90.5t-90.5 -36.5q-53 0 -90 36.5t-37 90.5z" />
<glyph unicode="&#xab;" horiz-adv-x="950" d="M51 547l393 403q33 33 74.5 39t76 -9.5t56.5 -45.5l-401 -387l295 -387q-31 -30 -69.5 -46t-78.5 -10t-63 39zM381 547l369 325q49 38 101 26.5t79 -54.5l-371 -297l289 -297q-38 -43 -94.5 -55t-94.5 26z" />
<glyph unicode="&#xad;" horiz-adv-x="686" d="M16 535q0 55 50 93t133 38q45 0 121 -9.5t110 -9.5q63 0 113 31q24 -39 24 -74q0 -59 -50 -104t-128 -45q-42 0 -119.5 23.5t-124.5 23.5q-69 0 -102 -41q-27 38 -27 74z" />
<glyph unicode="&#xbb;" horiz-adv-x="923" d="M20 250l369 297l-287 297q38 43 94.5 54.5t94.5 -26.5l278 -325l-368 -326q-49 -38 -101.5 -26t-79.5 55zM299 160l399 387l-292 387q31 30 69.5 45.5t78 9.5t62.5 -39l283 -403l-393 -404q-33 -33 -74.5 -39t-76 10t-56.5 46z" />
<glyph unicode="&#x401;" d="M86 389q0 155 96.5 290.5t261.5 186.5q-82 54 -122.5 133t-40.5 170q0 76 30 148.5t84 130.5t139 93.5t187 35.5q167 0 250.5 -73t83.5 -181q0 -89 -47 -152t-121 -63q-30 0 -66.5 21.5t-52.5 60.5q45 13 72.5 57t27.5 94q0 51 -30.5 86t-89.5 35q-113 0 -179.5 -89.5 t-66.5 -209.5q0 -104 53.5 -186t155.5 -107q6 -42 -21 -77q-97 -7 -170.5 -64.5t-109 -137t-35.5 -165.5q0 -111 62 -186.5t181 -75.5q98 0 197.5 28.5t179.5 88.5q35 -15 35 -50q0 -27 -18 -45q-101 -101 -246.5 -151.5t-292.5 -50.5q-97 0 -173 33t-121.5 90t-69 128.5 t-23.5 153.5zM455 1765q0 54 36.5 90.5t90.5 36.5t90.5 -36.5t36.5 -90.5t-36.5 -90.5t-90.5 -36.5t-90.5 36.5t-36.5 90.5zM858 1765q0 54 37 90.5t90 36.5q54 0 90.5 -36.5t36.5 -90.5t-36.5 -90.5t-90.5 -36.5q-53 0 -90 36.5t-37 90.5z" />
<glyph unicode="&#x410;" horiz-adv-x="1398" d="M-4 264q0 154 174 154q58 0 102 -35q-43 -98 -43 -211v-18q53 20 103.5 63.5t115.5 138t131.5 234t148.5 363t169 513.5h-41q-129 0 -191.5 -59t-62.5 -141q0 -71 41 -119q-47 -21 -88 -21q-75 0 -120.5 57.5t-45.5 137.5q0 51 19.5 98t59 88t107 65.5t154.5 24.5 q86 0 196.5 -13.5t183.5 -26t163 -16.5t135 15q29 -17 29 -53q0 -32 -19.5 -56t-52.5 -24h-8l-234 -1093q-32 -152 68 -152q45 0 105.5 33t103.5 70q35 -15 35 -50q0 -23 -19 -45q-90 -91 -184 -146.5t-170 -55.5q-37 0 -70.5 7.5t-65 24.5t-50.5 45t-27.5 69t4.5 97l70 332 h-230q-133 -307 -258 -441t-262 -134q-79 0 -127.5 73.5t-48.5 206.5zM741 678h205l164 770q-74 8 -113 12q-134 -470 -256 -782z" />
<glyph unicode="&#x411;" horiz-adv-x="1286" d="M47 1184q0 77 28.5 140t78 104t109 71.5t128.5 46.5t129.5 23.5t118.5 7.5q54 0 196.5 -12.5t200.5 -12.5q159 0 242 60q44 -128 -6 -216.5t-160 -88.5q-42 0 -90 13t-118.5 39t-108.5 38l-115 -533q98 33 176 33q77 0 137.5 -20.5t97 -52t60 -74t32.5 -82t9 -80.5 q0 -77 -31 -161t-91.5 -162.5t-140.5 -141.5t-186.5 -101t-220.5 -38q-173 0 -293 43t-120 112q0 36 20 65t61 42q44 -38 95 -66l268 1252q-112 -8 -194.5 -90t-82.5 -216q0 -59 29 -106q-71 -17 -120.5 -11t-80 34t-44 63.5t-13.5 77.5zM520 115h2q104 0 199.5 67.5 t152 175t56.5 220.5q0 83 -45 132.5t-133 49.5q-48 0 -97 -12z" />
<glyph unicode="&#x412;" horiz-adv-x="1275" d="M66 1200q0 82 62.5 154t162 120t221.5 75.5t242 27.5q80 0 143.5 -8t120.5 -28t94.5 -53t59.5 -85.5t22 -122.5q0 -122 -86 -246.5t-236 -204.5l2 -2q154 0 232 -72t78 -188q0 -94 -49.5 -196t-134 -188.5t-211.5 -142.5t-267 -56q-173 0 -293 43t-120 112q0 36 20 65 t61 42q44 -38 95 -66l233 1102q14 67 63 99t113 32q57 0 99 -27l-119 -555q122 37 208.5 166t86.5 258q0 118 -60.5 172t-187.5 54q-103 0 -203 -40t-169.5 -119t-69.5 -177q0 -73 40 -119q-44 -20 -88 -20q-75 0 -120 57t-45 137zM520 115h2q103 0 196 64.5t148.5 167 t55.5 210.5q0 83 -45.5 132.5t-133.5 49.5q-43 0 -92 -12z" />
<glyph unicode="&#x413;" horiz-adv-x="976" d="M242 10l321 1422q-61 -3 -114 -37q-25 31 -25 67q0 32 17 54.5t40 34t58.5 18t59 7.5t54.5 1q54 0 197 -12.5t201 -12.5q158 0 241 60q43 -126 -6 -210t-160 -95q-43 -5 -90.5 6.5t-126 42.5t-110.5 41l-273 -1282q-14 -67 -63 -99t-113 -32q-71 0 -108 26z" />
<glyph unicode="&#x414;" horiz-adv-x="1415" d="M-74 127q0 72 58 129t155 57q64 0 158 -55q37 60 61 166l183 858q14 67 63 99t113 32q56 0 98 -27l-194 -890q-48 -212 -150 -342q83 -39 158 -39q96 0 178.5 51.5t139.5 136.5t98 195.5t60 228.5t19 236q0 85 -12.5 160t-41.5 141t-71.5 113t-106 74.5t-142.5 27.5 q-119 0 -211.5 -27.5t-148 -74.5t-83.5 -106t-28 -126q0 -73 40 -119q-44 -20 -88 -20q-75 0 -120 57t-45 137q0 78 45.5 145.5t133 119.5t227 82t316.5 30q155 0 273.5 -49t188.5 -134.5t104.5 -193t34.5 -233.5q0 -138 -30.5 -277t-92.5 -266t-148 -225t-205.5 -156.5 t-255.5 -58.5q-138 0 -270 90q-118 -90 -278 -90q-80 0 -131.5 38.5t-51.5 104.5zM49 186q0 -23 20.5 -37t53.5 -14q68 0 123 55q-66 56 -105 56q-41 0 -66.5 -18.5t-25.5 -41.5z" />
<glyph unicode="&#x415;" d="M86 389q0 155 96.5 290.5t261.5 186.5q-82 54 -122.5 133t-40.5 170q0 76 30 148.5t84 130.5t139 93.5t187 35.5q167 0 250.5 -73t83.5 -181q0 -89 -47 -152t-121 -63q-30 0 -66.5 21.5t-52.5 60.5q45 13 72.5 57t27.5 94q0 51 -30.5 86t-89.5 35q-113 0 -179.5 -89.5 t-66.5 -209.5q0 -104 53.5 -186t155.5 -107q6 -42 -21 -77q-97 -7 -170.5 -64.5t-109 -137t-35.5 -165.5q0 -111 62 -186.5t181 -75.5q98 0 197.5 28.5t179.5 88.5q35 -15 35 -50q0 -27 -18 -45q-101 -101 -246.5 -151.5t-292.5 -50.5q-97 0 -173 33t-121.5 90t-69 128.5 t-23.5 153.5z" />
<glyph unicode="&#x416;" horiz-adv-x="2207" d="M-2 260q0 75 42 128.5t128 53.5q23 0 49 -12.5t37 -32.5q-27 -47 -27 -100q0 -85 33.5 -133.5t95.5 -48.5q107 0 189.5 123t126 330t43.5 460q0 186 -37 289.5t-111 103.5q-163 0 -266 -225q-38 6 -52 38.5t-1 65.5q48 122 146.5 191.5t209.5 69.5q166 0 249 -139.5 t83 -391.5q0 -170 -37 -334l197 348l82 381q14 67 63 99t113 32q54 0 98 -26l-176 -830l240 418q85 200 213 321.5t286 121.5q173 0 246 -120q55 -90 31 -203q-21 -100 -88 -145q-36 -24 -78 -24q-30 0 -66.5 21.5t-52.5 60.5q38 22 59 68.5t21 91.5t-26 79.5t-74 34.5 q-116 0 -216 -175q-101 -177 -137 -434q-40 -274 22 -453q65 -187 222 -187q79 0 174.5 33.5t155.5 71.5q35 -15 35 -50q0 -29 -19 -45q-102 -98 -222 -150t-235 -52q-97 0 -170 42.5t-116.5 118t-64.5 171t-21 210.5q0 165 32 310l-196 -340l-80 -381q-14 -67 -63 -99 t-113 -32q-61 0 -98 26l172 813l-236 -415h-2q-82 -194 -207.5 -309t-281.5 -115q-57 0 -102.5 6.5t-88 25t-71 49t-45.5 80t-17 115.5z" />
<glyph unicode="&#x417;" horiz-adv-x="1130" d="M47 270q0 75 42.5 129t127.5 54q23 0 49 -12.5t37 -32.5q-27 -42 -27 -101q0 -92 48.5 -141t121.5 -49q53 0 108 26.5t102 74.5t76.5 126t29.5 170q0 69 -19 113t-62 68t-99 33t-144 9q-18 47 15 101q78 3 139 30.5t99 69t62.5 96.5t34 108t9.5 109q0 97 -47.5 146 t-114.5 49q-73 0 -113.5 -44.5t-40.5 -111.5q0 -55 31 -112q-45 -31 -90 -31q-56 0 -95.5 39t-39.5 104q0 64 26 115t67 82.5t95 52.5t105 29t102 8q72 0 135 -18.5t113.5 -55.5t80 -99.5t29.5 -143.5q0 -53 -22 -114t-63.5 -123.5t-112.5 -118.5t-160 -91q165 3 254.5 -68 t89.5 -219q0 -117 -56 -221t-144 -173t-194.5 -108.5t-209.5 -39.5q-162 0 -268.5 73.5t-106.5 212.5z" />
<glyph unicode="&#x418;" horiz-adv-x="1437" d="M66 1321q0 51 19.5 98t59 88t107 65.5t154.5 24.5q55 0 127 -13.5t120 -25.5t104.5 -16t80.5 14q28 -17 28 -53q0 -32 -19 -56t-52 -24h-19l-207 -977l572 959q37 69 78.5 100t97.5 31t98 -27l-254 -1179q-32 -152 68 -152q45 0 105.5 33t103.5 70q35 -15 35 -50 q0 -23 -19 -45q-104 -97 -189 -149.5t-167 -52.5q-40 0 -72.5 8t-64 27.5t-47.5 53t-22 85.5t11 123l166 784l-571 -950q-39 -70 -79.5 -100.5t-96.5 -30.5q-58 0 -99 26l309 1456q-129 0 -191 -59t-62 -141q0 -73 40 -119q-47 -21 -88 -21q-75 0 -120 57.5t-45 137.5z" />
<glyph unicode="&#x419;" horiz-adv-x="1437" d="M66 1321q0 51 19.5 98t59 88t107 65.5t154.5 24.5q55 0 127 -13.5t120 -25.5t104.5 -16t80.5 14q28 -17 28 -53q0 -32 -19 -56t-52 -24h-19l-207 -977l572 959q37 69 78.5 100t97.5 31t98 -27l-254 -1179q-32 -152 68 -152q45 0 105.5 33t103.5 70q35 -15 35 -50 q0 -23 -19 -45q-104 -97 -189 -149.5t-167 -52.5q-40 0 -72.5 8t-64 27.5t-47.5 53t-22 85.5t11 123l166 784l-571 -950q-39 -70 -79.5 -100.5t-96.5 -30.5q-58 0 -99 26l309 1456q-129 0 -191 -59t-62 -141q0 -73 40 -119q-47 -21 -88 -21q-75 0 -120 57.5t-45 137.5z M758 1776q0 72 45.5 123t126.5 51q44 0 82 -21q-15 -27 -15 -61q0 -44 26.5 -68t68.5 -24q55 0 109 43t83 123q31 5 55.5 -13.5t18.5 -56.5q-11 -115 -122.5 -205t-268.5 -90q-101 0 -155 59t-54 140z" />
<glyph unicode="&#x41a;" horiz-adv-x="1351" d="M66 1321q0 51 19.5 98t59 88t107 65.5t154.5 24.5q55 0 127 -13.5t120 -25.5t104.5 -16t80.5 14q28 -17 28 -53q0 -32 -19 -56t-52 -24h-19l-133 -628l49 16q69 40 126.5 93.5t99 116t72.5 123t55 134t38 127.5t29 123q31 16 76 16q54 0 97.5 -34.5t43.5 -88.5 q0 -139 -101 -286.5t-280 -290.5q66 -666 244 -666q40 0 84.5 30t75.5 73q30 -13 30 -48q0 -27 -23 -68t-62.5 -82t-102 -70t-131.5 -29q-68 0 -123.5 44.5t-91.5 114t-62.5 167.5t-40.5 191t-22 199l-105 -14l-120 -571q-14 -67 -63 -99t-113 -32q-72 0 -109 26l330 1456 h-11q-129 0 -191 -59t-62 -141q0 -73 40 -119q-47 -21 -88 -21q-75 0 -120 57.5t-45 137.5z" />
<glyph unicode="&#x41b;" horiz-adv-x="1406" d="M-27 264q0 154 174 154q59 0 103 -35q-43 -98 -43 -211v-18q53 20 103 63.5t115.5 138t131.5 234t148 363t169 513.5h-18q-117 -1 -179.5 -61t-62.5 -160q0 -59 29 -106q-71 -17 -120.5 -11t-80 34t-44 63.5t-13.5 77.5q0 83 27 141t77 88.5t108 43.5t132 13 q86 0 200 -12t188.5 -23t163.5 -13.5t126 15.5q29 -17 29 -53q0 -32 -19.5 -56t-52.5 -24l-234 -1093q-32 -152 68 -152q45 0 105.5 33t103.5 70q35 -15 35 -50q0 -23 -19 -45q-104 -97 -189 -149.5t-167 -52.5q-40 0 -72.5 8t-64 27.5t-47.5 53t-22 85.5t11 123l246 1167 q-21 2 -68.5 7t-72.5 7q-160 -554 -300 -882t-264 -462t-263 -134q-79 0 -128 73.5t-49 206.5z" />
<glyph unicode="&#x41c;" horiz-adv-x="1937" d="M-12 264q0 154 174 154q58 0 102 -35q-43 -98 -43 -211v-18q53 20 103.5 63.5t115.5 138t131.5 234t148.5 363t169 513.5h-10q-129 0 -191.5 -59t-62.5 -141q0 -71 41 -119q-46 -21 -88 -21q-75 0 -120.5 57.5t-45.5 137.5q0 51 19.5 98t59 88t107 65.5t154.5 24.5 q55 0 127 -13.5t120 -25.5t104.5 -16t80.5 14q28 -17 28 -53q0 -32 -19 -56t-52 -24h-2l-74 -1089l475 1071q53 131 176 131q71 0 113 -27l-168 -1179q-11 -86 6.5 -119t61.5 -33q45 0 105 32.5t103 70.5q35 -15 35 -50q0 -24 -18 -45q-195 -202 -352 -202q-46 0 -84.5 12 t-71 38.5t-46 76t-3.5 116.5l137 926l-447 -1049q-26 -67 -69 -93.5t-105 -26.5q-57 0 -98 26l74 908l10 239q-136 -435 -260 -696t-236.5 -369t-238.5 -108q-79 0 -127.5 73.5t-48.5 206.5z" />
<glyph unicode="&#x41d;" horiz-adv-x="1376" d="M66 1321q0 51 19.5 98t59 88t107 65.5t154.5 24.5q55 0 127 -13.5t120 -25.5t104.5 -16t80.5 14q28 -17 28 -53q0 -32 -19 -56t-52 -24h-19l-117 -542q136 0 312 16l108 508q14 67 63 99t113 32q53 0 99 -27l-254 -1179q-16 -84 3 -118t64 -34t105.5 33t103.5 70 q35 -15 35 -50q0 -24 -18 -45q-103 -96 -189 -149t-168 -53q-40 0 -72.5 8t-63.5 27.5t-47 53t-22 85.5t11 123l108 514q-143 -50 -319 -54l-133 -626q-14 -67 -63 -99t-113 -32q-72 0 -109 26l330 1456h-11q-129 0 -191 -59t-62 -141q0 -73 40 -119q-47 -21 -88 -21 q-75 0 -120 57.5t-45 137.5z" />
<glyph unicode="&#x41e;" horiz-adv-x="1298" d="M168 582q0 113 21 229.5t60.5 227.5t100.5 208.5t136 171t172 116t204 42.5q103 0 182 -42t126.5 -115.5t71.5 -167t24 -203.5q0 -121 -21.5 -246.5t-61.5 -244t-101.5 -223t-136 -182.5t-170.5 -123.5t-200 -45.5q-101 0 -180.5 47.5t-128 131t-73.5 190t-25 229.5z M457 627q0 -81 12.5 -149t37.5 -121t66.5 -83t96.5 -30t111.5 31t110.5 97t96 158t67.5 226.5t25.5 290.5q0 176 -58.5 273t-148.5 97q-89 0 -169 -75.5t-133 -192.5t-84 -255t-31 -267z" />
<glyph unicode="&#x41f;" horiz-adv-x="1376" d="M61 1182q0 77 28.5 140t78 104t109 71.5t128.5 46.5t129.5 23.5t118.5 7.5q51 0 247.5 -12.5t252.5 -12.5q159 0 242 60q37 -14 57 -45.5t18.5 -69.5t-17 -74t-52.5 -62.5t-86 -31.5l-215 -997q-32 -152 67 -152q45 0 105.5 33t103.5 70q35 -15 35 -50q0 -24 -18 -45 q-103 -96 -189 -149t-168 -53q-40 0 -72.5 8t-63.5 27.5t-47 53t-22 85.5t11 123l227 1077q-273 53 -295 57l-276 -1300q-14 -67 -63 -99t-113 -32q-72 0 -109 26l319 1415q-102 -20 -171.5 -99t-69.5 -202q0 -61 28 -106q-71 -17 -120.5 -11t-80 34t-44 63.5t-13.5 77.5z " />
<glyph unicode="&#x420;" horiz-adv-x="1292" d="M66 1200q0 118 96 204.5t256 129.5t362 43q131 0 229.5 -28t156.5 -78t86 -112.5t28 -137.5q0 -135 -50 -250t-135 -192.5t-198.5 -121t-239.5 -43.5h-30l-105 -499q-14 -67 -63 -99t-113 -32q-71 0 -108 26l286 1276q14 65 61.5 96t108.5 31q55 0 97 -27l-144 -675 q163 8 272 145.5t109 347.5q0 122 -71 198.5t-218 76.5q-123 0 -216 -30t-144 -80t-75.5 -106.5t-24.5 -117.5q0 -73 40 -119q-44 -20 -88 -20q-75 0 -120 57t-45 137z" />
<glyph unicode="&#x421;" d="M51 582q0 193 54.5 375.5t145.5 318.5t218 218.5t264 82.5q72 0 128 -23t89.5 -60.5t50.5 -82.5t17 -94q0 -85 -46.5 -147t-119.5 -62q-32 0 -68.5 21.5t-52.5 60.5q45 18 70 60t24 83.5t-32 73t-88 31.5q-88 0 -172.5 -115t-138.5 -307t-54 -400q0 -94 16.5 -172 t50 -139.5t90.5 -96t132 -34.5q176 0 366 107q35 -15 35 -50q0 -27 -18 -45q-202 -202 -498 -202q-117 0 -207.5 48.5t-145.5 133t-82.5 190t-27.5 226.5z" />
<glyph unicode="&#x422;" horiz-adv-x="1748" d="M-43 1186q0 77 28.5 140t78 104t109 71.5t128.5 46.5t129.5 23.5t118.5 7.5q109 0 473 -12.5t477 -12.5q159 0 242 60q58 -22 72.5 -82t-20 -119t-103.5 -78l-217 -1005q-32 -152 67 -152q45 0 105.5 33t103.5 70q35 -15 35 -50q0 -23 -19 -45q-104 -97 -189 -149.5 t-167 -52.5q-40 0 -72.5 8t-64 27.5t-47.5 53t-22 85.5t11 123l226 1060q-23 2 -264 33l-269 -1259q-14 -67 -63 -99t-113 -32q-71 0 -108 26l315 1393q-195 22 -266 27l-281 -1315q-14 -67 -63 -99t-113 -32q-72 0 -109 26l322 1420q-102 -20 -172 -99.5t-70 -202.5 q0 -59 29 -106q-71 -17 -120.5 -11t-80 34t-44 63.5t-13.5 77.5z" />
<glyph unicode="&#x423;" horiz-adv-x="1343" d="M125 1341q0 51 19.5 98.5t59 88t107 65.5t154.5 25q55 0 127 -13.5t120 -25.5t104.5 -16t80.5 14q29 -17 29 -53q0 -32 -19.5 -56t-52.5 -24h-14q43 -144 72.5 -328t37.5 -376.5t-16 -352.5q274 297 274 1036q0 83 -10 142q53 53 135 53q45 0 73.5 -22t36.5 -46.5 t7 -48.5q-6 -113 -30.5 -246t-71.5 -280.5t-110 -289t-152 -270.5t-192 -226t-234.5 -154.5t-274.5 -57.5q-98 0 -151.5 60t-53.5 139q0 84 58 133q82 -102 264 -102q115 0 215 35q21 302 -31 628.5t-156 612.5q-98 -14 -145 -70t-47 -127t41 -119q-44 -20 -88 -20 q-75 0 -120.5 57t-45.5 137z" />
<glyph unicode="&#x424;" horiz-adv-x="1480" d="M-33 449q0 94 23.5 192.5t66.5 192t108 176.5t143 145t177.5 98.5t206.5 36.5h19l22 103q-73 -15 -119 -15q-143 0 -211.5 58t-68.5 141q0 74 41.5 122t105.5 48q41 0 88 -21q-24 -65 -24 -104q0 -35 15 -58t44.5 -34t60.5 -15.5t76 -5.5q51 0 144 21.5t119 21.5 q34 0 52.5 -20t18.5 -53q0 -43 -28 -60q-26 23 -54 25l-32 -154h22q113 0 200.5 -36.5t141 -101t80.5 -147.5t27 -180q0 -94 -23.5 -192.5t-66.5 -192t-108 -176.5t-143 -145t-177.5 -98.5t-206.5 -36.5h-23l-14 -74q-14 -67 -63 -99t-113 -32q-58 0 -99 26l37 179h-16 q-113 0 -200.5 36.5t-141 101t-80.5 147.5t-27 180zM221 479q0 -110 24 -196t78.5 -140.5t133.5 -54.5h6l233 1098h-4q-84 0 -159.5 -43.5t-131.5 -115.5t-97 -163.5t-62 -191t-21 -193.5zM700 88h7q84 0 159.5 43.5t131.5 115.5t97 163.5t62 191t21 193.5q0 110 -24 196 t-78.5 140.5t-133.5 54.5h-10z" />
<glyph unicode="&#x425;" horiz-adv-x="1269" d="M-20 264q0 154 174 154q58 0 102 -35q-43 -98 -43 -211v-16q91 42 210 174.5t245 361.5l-164 772q-110 -10 -162.5 -66.5t-52.5 -131.5q0 -71 41 -119q-47 -21 -88 -21q-75 0 -120.5 57.5t-45.5 137.5q0 51 19.5 98t59 88t107 65.5t154.5 24.5q55 0 127 -13.5t120 -25.5 t104.5 -16t80.5 14q29 -17 29 -53q0 -32 -19.5 -56t-52.5 -24h-6l104 -505q101 139 147 308t31 339q73 53 136 53q34 0 59 -12.5t36.5 -32t16 -37.5t4.5 -35q0 -110 -31 -210.5t-91 -188.5t-126 -158.5t-157 -148.5l110 -533q16 -84 78 -84q45 0 106.5 33t102.5 70 q35 -15 35 -50q0 -23 -19 -45q-191 -202 -354 -202q-77 0 -133.5 47.5t-75.5 140.5l-73 344q-145 -256 -288 -394t-261 -138q-79 0 -127.5 73.5t-48.5 206.5z" />
<glyph unicode="&#x426;" horiz-adv-x="1400" d="M66 1321q0 51 19.5 98t59 88t107 65.5t154.5 24.5q55 0 127 -13.5t120 -25.5t104.5 -16t80.5 14q28 -17 28 -53q0 -32 -19 -56t-52 -24h-15l-256 -1202q19 -5 62.5 -18t72 -20.5t76 -16.5t96.5 -14l273 1259q14 67 63 99t113 32q57 0 98 -26l-309 -1373q94 2 148 136 q44 6 73 -31q5 -136 -25 -251.5t-80.5 -191t-116 -129.5t-131 -77.5t-126.5 -24.5q-92 0 -128.5 47.5t-19 114t75.5 127.5q20 -28 66 -39.5t103.5 -0.5t113 39.5t101.5 86t63 133.5q-24 -38 -65.5 -60t-84.5 -22q-109 0 -288.5 12.5t-292.5 12.5q-159 0 -242 -60 q-36 13 -56 43t-20 66.5t14 72t47 63t78 36.5l259 1220h-3q-129 0 -191 -59t-62 -141q0 -73 40 -119q-47 -21 -88 -21q-75 0 -120 57.5t-45 137.5z" />
<glyph unicode="&#x427;" horiz-adv-x="1378" d="M88 1321q0 51 19.5 98t59 88t107 65.5t154.5 24.5q55 0 127 -13.5t120 -25.5t104.5 -16t80.5 14q29 -17 29 -53q0 -32 -19.5 -56t-52.5 -24h-6l-94 -417q-16 -65 -18 -107.5t10 -63.5t29.5 -28.5t45.5 -7.5q88 0 191 41l141 596q16 66 64 97.5t108 31.5q62 0 96 -27 l-282 -1208q-35 -152 67 -152q45 0 105.5 33t103.5 70q35 -15 35 -50q0 -24 -18 -45q-103 -96 -189 -149t-168 -53q-40 0 -73 8t-64.5 28t-47.5 53.5t-21.5 85t12.5 122.5l104 442q-137 -94 -254 -94q-175 0 -222.5 112t11.5 330l99 393q-8 2 -27 2q-129 0 -191.5 -59 t-62.5 -141q0 -71 41 -119q-46 -21 -88 -21q-75 0 -120.5 57.5t-45.5 137.5z" />
<glyph unicode="&#x428;" horiz-adv-x="1734" d="M66 1321q0 51 19.5 98t59 88t107 65.5t154.5 24.5q55 0 127 -13.5t120 -25.5t104.5 -16t80.5 14q28 -17 28 -53q0 -32 -19 -56t-52 -24h-15l-254 -1187q16 -2 262 -33l261 1208q14 67 63 99t113 32q57 0 98 -26l-303 -1342q211 -23 272 -27l273 1264q14 67 63 99t113 32 q57 0 98 -26l-342 -1516q-109 0 -519 12.5t-523 12.5q-159 0 -242 -60q-36 13 -56 43t-20 66.5t14 72t47 63t78 36.5l259 1220h-3q-129 0 -191 -59t-62 -141q0 -73 40 -119q-47 -21 -88 -21q-75 0 -120 57.5t-45 137.5z" />
<glyph unicode="&#x429;" horiz-adv-x="1935" d="M66 1321q0 51 19.5 98t59 88t107 65.5t154.5 24.5q55 0 127 -13.5t120 -25.5t104.5 -16t80.5 14q28 -17 28 -53q0 -32 -19 -56t-52 -24h-15l-254 -1187q16 -2 262 -33l261 1208q14 67 63 99t113 32q57 0 98 -26l-303 -1342q211 -23 272 -27l273 1264q14 67 63 99t113 32 q57 0 98 -26l-309 -1373q93 2 147 136q45 6 74 -31q5 -136 -25 -251.5t-80.5 -191t-116 -129.5t-131 -77.5t-126.5 -24.5q-92 0 -128.5 47.5t-19 114t75.5 127.5q20 -28 66 -39.5t103.5 -0.5t113 39.5t101.5 86t63 133.5q-24 -38 -65.5 -60t-84.5 -22q-109 0 -519 12.5 t-523 12.5q-159 0 -242 -60q-36 13 -56 43t-20 66.5t14 72t47 63t78 36.5l259 1220h-3q-129 0 -191 -59t-62 -141q0 -73 40 -119q-47 -21 -88 -21q-75 0 -120 57.5t-45 137.5z" />
<glyph unicode="&#x42a;" horiz-adv-x="1271" d="M-29 1321q0 51 19.5 98t59 88t107 65.5t154.5 24.5q68 0 157.5 -13.5t148.5 -25.5t129 -16t100 14q28 -17 28 -53q0 -32 -19 -56t-52 -24h-2l-121 -559q98 33 176 33q77 0 137.5 -20.5t97 -52t60 -74t32.5 -82t9 -80.5q0 -77 -31 -161t-91.5 -162.5t-140.5 -141.5 t-186.5 -101t-220.5 -38q-173 0 -293 43t-120 112q0 36 20 65t61 42q37 -33 95 -66l274 1276q-65 10 -121 10q-129 0 -191.5 -59t-62.5 -141q0 -71 41 -119q-47 -21 -88 -21q-75 0 -120.5 57.5t-45.5 137.5zM520 115h2q104 0 199.5 67.5t152 175t56.5 220.5q0 83 -45 132.5 t-133 49.5q-48 0 -97 -12z" />
<glyph unicode="&#x42b;" horiz-adv-x="1845" d="M84 1321q0 51 19.5 98t59 88t107 65.5t154.5 24.5q55 0 127 -13.5t120 -25.5t104.5 -16t80.5 14q29 -17 29 -53q0 -32 -19.5 -56t-52.5 -24h-12l-281 -1308h2q69 0 134 29t115 77t88 113t56.5 134t15.5 142t-30 135q-76 -15 -166 -18q-22 25 -22 66q0 49 40.5 80.5 t114.5 31.5q79 0 140 -22q278 204 565 600q53 73 153 73q58 0 99 -26l-256 -1200q-32 -152 67 -152q45 0 105.5 33t103.5 70q35 -15 35 -50q0 -24 -18 -45q-103 -96 -189 -149t-168 -53q-40 0 -72.5 8t-63.5 27.5t-47 53t-22 85.5t11 123l207 995q-198 -269 -416 -451 q90 -87 90 -237q0 -77 -31 -161t-91.5 -162.5t-140.5 -141.5t-186.5 -101t-220.5 -38q-173 0 -293 43t-120 112q0 36 20 65t61 42q44 -38 95 -66l276 1286h-10q-129 0 -191.5 -59t-62.5 -141q0 -71 41 -119q-47 -21 -88 -21q-75 0 -120.5 57.5t-45.5 137.5z" />
<glyph unicode="&#x42c;" horiz-adv-x="1271" d="M86 1321q0 51 19.5 98t59 88t107 65.5t154.5 24.5q55 0 127 -13.5t120 -25.5t104.5 -16t80.5 14q29 -17 29 -53q0 -32 -19.5 -56t-52.5 -24h-14l-121 -559q98 33 176 33q77 0 137.5 -20.5t97 -52t60 -74t32.5 -82t9 -80.5q0 -204 -164 -375q-131 -137 -308 -197 q-175 -59 -292 -8q-130 56 -123 231q1 43 12 93l244 1134h-8q-129 0 -191.5 -59t-62.5 -141q0 -71 41 -119q-47 -21 -88 -21q-75 0 -120.5 57.5t-45.5 137.5zM551 252q-18 -83 35 -113q52 -28 129 15q102 57 162 199q42 99 53 225q8 81 -40.5 131.5t-137.5 50.5 q-48 0 -97 -12z" />
<glyph unicode="&#x42d;" horiz-adv-x="1138" d="M47 270q0 75 42.5 129t127.5 54q23 0 49 -12.5t37 -32.5q-27 -42 -27 -101q0 -92 48.5 -141t121.5 -49q71 0 132.5 48t106 132t76.5 192t50 236h-14q-43 0 -124.5 -21.5t-123.5 -21.5q-38 0 -69 17.5t-45.5 43t-16.5 54.5t18 53q44 -22 93.5 -22t117 11t111.5 11 q38 0 65 -12q11 125 11 200q0 190 -51.5 299t-155.5 109q-62 0 -109 -38t-47 -97q0 -76 33 -133q-48 -33 -103 -33q-54 0 -88 43t-34 102q0 64 26 115t67 82.5t95 52.5t105 29t102 8q220 0 325 -143.5t105 -399.5q0 -133 -20.5 -262t-59 -246t-97.5 -216t-133 -171.5 t-169.5 -113.5t-202.5 -41q-162 0 -268.5 73.5t-106.5 212.5z" />
<glyph unicode="&#x42e;" horiz-adv-x="1937" d="M66 1321q0 51 19.5 98t59 88t107 65.5t154.5 24.5q55 0 127 -13.5t120 -25.5t104.5 -16t80.5 14q28 -17 28 -53q0 -32 -19 -56t-52 -24h-19l-114 -542q70 0 196 8q34 141 93.5 261.5t141 213t189.5 145t229 52.5q110 0 192 -46.5t131 -131t70.5 -198t16.5 -253.5 q-5 -145 -38 -284t-94 -260.5t-142 -214t-189 -145.5t-229 -53q-153 0 -252 81.5t-136.5 221t-19.5 326.5q3 84 15 166q-112 -23 -205 -29l-133 -626q-14 -67 -63 -99t-113 -32q-72 0 -109 26l330 1456h-11q-129 0 -191 -59t-62 -141q0 -73 40 -119q-47 -21 -88 -21 q-75 0 -120 57.5t-45 137.5zM1120 530q0 -141 57 -217.5t146 -76.5q55 0 111.5 30t110.5 94.5t96 154.5t68 220.5t26 282.5q0 185 -60 284t-151 99q-54 0 -110 -35t-109 -107.5t-94 -173.5t-66 -245t-25 -310z" />
<glyph unicode="&#x42f;" horiz-adv-x="1239" d="M-53 264q0 154 174 154q58 0 102 -35q-43 -98 -43 -211v-18q45 17 88.5 51.5t94.5 97t108 167.5t117 247q-131 41 -194.5 126t-63.5 197q0 132 53 236t146 169t213.5 98.5t261.5 33.5q48 0 100.5 -5t117.5 -20.5t114.5 -39.5t83.5 -67t34 -99q0 -36 -30 -68.5t-76 -42.5 q-52 144 -134 195l-235 -1100q-32 -152 68 -152q45 0 105 32.5t103 70.5q35 -15 35 -50q0 -24 -18 -45q-103 -96 -189 -149t-168 -53q-40 0 -72.5 8t-63.5 27.5t-47 53t-22 85.5t11 123l84 403q-41 0 -107 8q-149 -382 -286.5 -545t-288.5 -163q-79 0 -127.5 73.5 t-48.5 206.5zM582 1057q0 -112 60 -187t185 -86l146 693q-171 -3 -281 -112t-110 -308z" />
<glyph unicode="&#x430;" horiz-adv-x="1073" d="M-23 328q0 178 69 342.5t189.5 268t258.5 103.5q135 0 211 -67q50 59 139 59q55 0 96 -26l-143 -678q-33 -152 61 -152q54 0 113.5 30.5t101.5 72.5q35 -15 35 -50q0 -24 -18 -45q-75 -85 -174.5 -143.5t-180.5 -58.5q-83 0 -137 47t-53 159q-68 -95 -148 -150.5 t-164 -55.5q-61 0 -108 23.5t-74.5 59.5t-44.5 84t-23 90.5t-6 86.5zM231 342q0 -73 30.5 -110t80.5 -37t108 36t99 93l115 548q-50 17 -97 17q-88 0 -156 -53t-105.5 -138t-56 -175.5t-18.5 -180.5z" />
<glyph unicode="&#x431;" horiz-adv-x="802" d="M-61 334q0 107 38 221t102.5 209t160.5 156t202 61q38 0 68 -6q-30 36 -73 72.5t-75.5 58t-81 52.5t-65.5 42q0 39 2 64.5t13 61t30.5 56.5t58 36.5t93.5 15.5q69 0 180 -8t188.5 -8t134.5 16q25 -38 15 -101q-14 -61 -57.5 -106t-110.5 -45q-74 0 -207 26.5t-197 30.5 q62 -46 101 -77.5t94.5 -87t87.5 -106t56 -120t24 -143.5q0 -90 -20.5 -188.5t-62.5 -193t-99 -170.5t-136 -122.5t-167 -46.5q-77 0 -135.5 28t-93 77t-51.5 110.5t-17 134.5zM201 395q0 -83 30.5 -134.5t90.5 -51.5q63 0 117.5 55t88 138t52 173t18.5 168q0 57 -20 115 q-33 8 -91 8q-63 0 -118.5 -45.5t-91 -116t-56 -152.5t-20.5 -157z" />
<glyph unicode="&#x432;" horiz-adv-x="860" d="M0 377q6 135 33.5 279.5t79 289.5t120.5 259t167.5 185.5t209.5 71.5q96 0 147.5 -51t45.5 -147q-4 -85 -77 -203t-228 -303q64 22 123 22q85 0 136 -59t44 -156q-12 -150 -99 -285.5t-214.5 -215.5t-254.5 -80q-118 0 -181 94t-52 299zM238 410q-13 -256 118 -256 q45 0 83 25t63.5 64.5t43.5 89t25.5 99t6 94t-12.5 74.5q-30 76 -133 82q-77 -92 -190 -221q-4 -36 -4 -51zM264 612q199 250 291.5 400t97.5 229q2 48 -8.5 71t-40.5 23q-52 0 -106 -69t-98 -178.5t-79 -232t-57 -243.5z" />
<glyph unicode="&#x433;" horiz-adv-x="694" d="M-109 264q0 69 25 125.5t64.5 93t87.5 67t95.5 55.5t87 51t64.5 60.5t25 76.5q0 54 -30.5 80t-78.5 26t-104 -27t-94 -63q-35 15 -35 55q0 27 14 41q83 73 159.5 108.5t164.5 35.5q110 0 174.5 -66t64.5 -166q0 -71 -24 -129t-63 -97t-85.5 -72t-93 -60.5t-85.5 -55 t-63 -63.5t-24 -78q0 -43 37.5 -70.5t106.5 -27.5q130 0 245.5 70t182.5 200q34 3 46.5 -13.5t-1.5 -45.5q-53 -116 -142.5 -206.5t-189 -137.5t-193.5 -47q-157 0 -247.5 81.5t-90.5 198.5z" />
<glyph unicode="&#x434;" horiz-adv-x="1021" d="M-109 -537q0 73 36 144.5t94 130t137.5 111.5t160.5 93t168 72q8 30 25 89t20 71q-141 -190 -299 -190q-61 0 -108 23.5t-74.5 59.5t-44.5 84t-23 90.5t-6 86.5q0 178 69 342.5t189.5 268t258.5 103.5q132 0 208 -67q50 59 142 59q55 0 96 -26l-172 -811q-9 -43 -18 -84 q192 94 292 178q24 -21 25.5 -50t-23.5 -53q-33 -29 -127.5 -87t-193.5 -105q-22 -90 -43 -164t-52 -157.5t-64.5 -148t-78.5 -125.5t-96 -101t-116.5 -64t-139.5 -24q-101 0 -171.5 65t-70.5 186zM31 -510q0 -48 28.5 -72t55.5 -24q103 0 176 109t153 368 q-176 -70 -294.5 -176t-118.5 -205zM231 342q0 -73 30.5 -110t80.5 -37t108 36t99 93l115 548q-50 17 -97 17q-88 0 -156 -53t-105.5 -138t-56 -175.5t-18.5 -180.5z" />
<glyph unicode="&#x435;" horiz-adv-x="849" d="M-23 350q0 68 15 144t43 153.5t73 148.5t100 126t129 87.5t155 32.5q67 0 114.5 -17t72 -47t35.5 -62t11 -70q0 -69 -21 -126.5t-74 -122t-149.5 -134t-242.5 -150.5q27 -151 190 -151q108 0 232.5 66t191.5 155q38 7 54 -17.5t-3 -52.5q-103 -152 -263.5 -240.5 t-313.5 -88.5q-154 0 -251.5 93t-97.5 273zM231 401q155 98 244.5 202t89.5 200q0 35 -16.5 57.5t-42.5 22.5q-58 0 -106 -37t-77.5 -91.5t-50.5 -122.5t-30 -125.5t-11 -105.5z" />
<glyph unicode="&#x436;" horiz-adv-x="1642" d="M-100 213q0 69 40 100t103 31q46 0 84 -33q-35 -37 -35 -92q0 -52 22 -82.5t56 -30.5q30 0 62.5 19.5t65.5 64.5t59 110t42.5 166t16.5 222q0 101 -33 155t-82 54q-93 0 -154 -109q-27 -6 -44 22.5t-9 49.5q21 51 53 86.5t71 54t79.5 26t89.5 7.5q104 0 169 -85t65 -212 q0 -79 -9 -147l164 334q32 64 62 87t80 23q46 0 75 -26l-147 -676l168 342q39 101 91.5 179.5t126.5 129.5t154 51q110 0 164 -45.5t54 -144.5q0 -82 -42 -126.5t-102 -41.5q-43 3 -82 29q33 70 33 133q0 71 -35 71q-90 0 -148.5 -148.5t-58.5 -377.5q0 -129 33.5 -192.5 t89.5 -63.5q96 0 197 79.5t153 176.5q40 7 56 -17.5t-4 -52.5q-79 -163 -201.5 -246t-249.5 -83q-59 0 -109.5 20.5t-92 62.5t-65.5 114.5t-24 168.5q0 20 4 70l-159 -326q-32 -64 -62 -87t-80 -23q-46 0 -75 26l145 674l-170 -344q-68 -179 -192.5 -267.5t-260.5 -88.5 q-84 0 -143 59t-59 170z" />
<glyph unicode="&#x437;" horiz-adv-x="737" d="M-326 -537q0 75 35 148t92 132.5t135 115t157.5 96.5t166.5 76q12 86 12 112q0 86 -50 139.5t-138 53.5q-8 49 16 84t70 35q95 0 169.5 97t74.5 198q0 71 -37.5 108t-97.5 37q-39 0 -82 -16q-4 -12 -4 -41q0 -65 32 -133q-33 -29 -82 -29q-54 0 -88.5 41t-34.5 100 q0 42 20 81.5t60 74t110.5 55.5t162.5 21q128 0 205 -72.5t77 -177.5q0 -150 -91 -258.5t-247 -151.5q91 -29 141 -97t50 -159v-2q129 67 240 160q24 -21 25.5 -50t-23.5 -53q-29 -25 -102 -75t-152 -95q-22 -134 -78.5 -297.5t-114.5 -261.5q-149 -247 -387 -247 q-101 0 -171.5 65t-70.5 186zM-186 -510q0 -48 28.5 -72t55.5 -24q114 0 200 147q66 117 131 350q-175 -69 -295 -182t-120 -219z" />
<glyph unicode="&#x438;" horiz-adv-x="1013" d="M-22 276.5q4 49.5 16 100.5l96 420q6 24 0 37.5t-20 13.5q-13 0 -41 -25q-23 13 -25.5 50t25.5 63q125 98 229 98q58 0 84.5 -27.5t13.5 -84.5l-125 -582q-26 -121 70 -121q99 0 188 107l123 579q14 66 62 97.5t110 31.5q56 0 97 -26l-144 -678q-33 -152 62 -152 q54 0 113.5 30.5t101.5 72.5q35 -15 35 -50q0 -23 -19 -45q-75 -85 -174 -143.5t-180 -58.5q-40 0 -73.5 11.5t-62.5 36.5t-44 71.5t-11 111.5q-142 -231 -299 -231q-65 0 -110 26.5t-66 67t-28.5 95t-3.5 104z" />
<glyph unicode="&#x439;" horiz-adv-x="1013" d="M-22 276.5q4 49.5 16 100.5l96 420q6 24 0 37.5t-20 13.5q-13 0 -41 -25q-23 13 -25.5 50t25.5 63q125 98 229 98q58 0 84.5 -27.5t13.5 -84.5l-125 -582q-26 -121 70 -121q99 0 188 107l123 579q14 66 62 97.5t110 31.5q56 0 97 -26l-144 -678q-33 -152 62 -152 q54 0 113.5 30.5t101.5 72.5q35 -15 35 -50q0 -23 -19 -45q-75 -85 -174 -143.5t-180 -58.5q-40 0 -73.5 11.5t-62.5 36.5t-44 71.5t-11 111.5q-142 -231 -299 -231q-65 0 -110 26.5t-66 67t-28.5 95t-3.5 104zM276 1305q0 72 46 123t127 51q43 0 81 -21q-14 -25 -14 -61 q0 -44 26.5 -68t67.5 -24q55 0 109.5 42.5t83.5 122.5q32 5 56 -13t18 -56q-11 -115 -122.5 -205t-269.5 -90q-101 0 -155 59t-54 140z" />
<glyph unicode="&#x43a;" horiz-adv-x="872" d="M-78 10l168 787q12 51 -20 51q-13 0 -41 -25q-23 13 -25.5 50t25.5 63q125 98 229 98q120 0 98 -112l-71 -351l12 4q77 24 163.5 151.5t121.5 285.5q45 22 98 22q50 0 78 -27.5t28 -68.5q0 -86 -90.5 -202t-195.5 -187q9 -35 12.5 -49t15 -54t20.5 -61t24 -55.5t30.5 -54 t35.5 -40.5t44 -30.5t51 -9.5q28 0 60 21.5t79 64.5q35 -15 35 -50q0 -24 -18 -45q-61 -75 -151 -138.5t-150 -63.5q-47 0 -86.5 22t-67.5 62.5t-49.5 84.5t-37.5 102.5t-25 100.5t-19 93q-3 15 -4 22l-37 -10l-72 -348q-14 -66 -62 -97.5t-110 -31.5q-55 0 -96 26z" />
<glyph unicode="&#x43b;" horiz-adv-x="1081" d="M-102 213q0 127 143 127q41 0 84 -29q-35 -74 -35 -159q37 23 64 47.5t63.5 75.5t69 122.5t73 189t82.5 273.5q-188 -27 -243 -90q-43 49 -43 104q0 89 65 133t162 44q37 0 87 -1.5t116.5 -5.5t128 -11.5t113.5 -18t82 -26.5t26 -36l-131 -622q-33 -152 61 -152 q54 0 113.5 30.5t101.5 72.5q35 -15 35 -50q0 -24 -18 -45q-75 -85 -174.5 -143.5t-180.5 -58.5q-38 0 -68 5.5t-57.5 19t-45 38t-27.5 60t-8 88t16 118.5l121 568q-64 -3 -127 -9q-107 -432 -234 -651q-66 -115 -137.5 -175t-132.5 -62q-65 -2 -105 58.5t-40 170.5z" />
<glyph unicode="&#x43c;" horiz-adv-x="1497" d="M-102 213q0 127 143 127q41 0 84 -29q-35 -74 -35 -159q47 29 81.5 65t79.5 111.5t93.5 210.5t101.5 333q-160 -18 -235 -102q-43 49 -43 104q0 89 65 133t162 44q221 0 303 -33l27 -696l317 577q41 75 80 105t95 30q54 0 98 -26l-94 -678q-12 -83 3.5 -117.5t57.5 -34.5 q54 0 113.5 30.5t101.5 72.5q35 -15 35 -50q0 -23 -19 -45q-75 -85 -174 -143.5t-180 -58.5q-28 0 -52.5 5t-51 18.5t-45 36.5t-33 58.5t-15.5 85.5t7 117l53 350l-346 -663q-75 -20 -122 4.5t-50 93.5l-15 569q-83 -281 -176 -438q-66 -115 -137.5 -175t-132.5 -62 q-65 -2 -105 58.5t-40 170.5z" />
<glyph unicode="&#x43d;" d="M-80 10l170 787q6 24 0 37.5t-20 13.5q-13 0 -41 -25q-23 13 -25.5 50t25.5 63q125 98 229 98q58 0 84.5 -27.5t13.5 -84.5l-71 -328q124 3 254 16l63 295q14 66 58.5 97.5t105.5 31.5q55 0 96 -26l-143 -678q-33 -152 61 -152q54 0 113.5 30.5t101.5 72.5q35 -15 35 -50 q0 -24 -18 -45q-178 -202 -348 -202q-28 0 -53.5 5.5t-53 19t-46.5 37t-34 59t-14.5 85t12.5 115.5l41 199q-136 -43 -260 -49l-74 -342q-14 -66 -59.5 -97.5t-106.5 -31.5q-55 0 -96 26z" />
<glyph unicode="&#x43e;" horiz-adv-x="882" d="M-25 346q0 93 24.5 191t72 187.5t110 161t145.5 114t173 42.5q81 0 143 -28.5t99.5 -79.5t56 -116t18.5 -142q0 -92 -25 -189t-73.5 -186.5t-112.5 -160.5t-150.5 -113.5t-179.5 -42.5q-77 0 -136 29t-94 80t-53 115t-18 138zM238 412q0 -127 37 -188.5t96 -61.5 q77 0 146.5 88t108 210.5t38.5 231.5q0 88 -29.5 141.5t-89.5 53.5q-67 0 -126 -46t-97.5 -116.5t-61 -153.5t-22.5 -159z" />
<glyph unicode="&#x43f;" horiz-adv-x="980" d="M-78 10l168 787q6 24 0 37.5t-20 13.5q-13 0 -41 -25q-23 13 -25.5 50t25.5 63q125 98 229 98q58 0 84.5 -27.5t13.5 -84.5l-20 -93q65 93 156 149t180 56t130.5 -74.5t8.5 -226.5l-100 -471q-9 -42 6.5 -63t48.5 -21q54 0 113.5 30.5t101.5 72.5q35 -15 35 -50 q0 -23 -19 -45q-78 -89 -175.5 -145.5t-194.5 -56.5q-33 0 -60.5 7t-54.5 26t-40 51.5t-17.5 83.5t12.5 122l86 408q13 61 -3 91t-52 30q-40 0 -94 -32.5t-89 -74.5l-125 -583q-14 -66 -62 -97.5t-110 -31.5q-55 0 -96 26z" />
<glyph unicode="&#x440;" horiz-adv-x="974" d="M-233 -745l323 1542q6 24 0 37.5t-20 13.5q-13 0 -41 -25q-23 13 -25.5 50t25.5 63q125 98 229 98q58 0 84.5 -27.5t13.5 -84.5l-10 -50q132 162 279 162q87 0 147 -46.5t86.5 -121t26.5 -170.5q0 -117 -41.5 -241t-113.5 -229.5t-182.5 -173.5t-236.5 -68q-79 0 -141 53 l-141 -680q-14 -66 -59.5 -97.5t-106.5 -31.5q-54 0 -96 27zM197 164q43 -23 102 -23q75 0 140 46.5t106 118.5t64.5 155.5t23.5 161.5q0 103 -33 154.5t-88 51.5q-97 0 -203 -131z" />
<glyph unicode="&#x441;" horiz-adv-x="849" d="M-23 350q0 118 39.5 241t106.5 223t166.5 164t210.5 64q248 0 248 -198q0 -82 -41.5 -125t-102.5 -43q-49 0 -82 29q33 70 33 133q0 59 -76 59q-43 0 -87 -39.5t-80 -106t-58.5 -164t-22.5 -204.5q0 -115 53.5 -168t143.5 -53q108 0 232.5 66t191.5 155q38 7 54 -17.5 t-3 -52.5q-103 -152 -263.5 -240.5t-313.5 -88.5q-154 0 -251.5 93t-97.5 273z" />
<glyph unicode="&#x442;" horiz-adv-x="1460" d="M-78 10l168 787q6 24 0 37.5t-20 13.5q-13 0 -41 -25q-23 13 -25.5 50t25.5 63q125 98 229 98q58 0 84.5 -27.5t13.5 -84.5l-20 -93q142 205 303 205q71 0 123.5 -55t48.5 -156q148 211 307 211q30 0 58 -8.5t57.5 -28.5t45.5 -54.5t22.5 -86t-11.5 -123.5l-100 -471 q-9 -42 6.5 -63t48.5 -21q54 0 113.5 30.5t101.5 72.5q35 -15 35 -50q0 -24 -18 -45q-78 -88 -176 -145t-195 -57q-33 0 -60.5 7t-54.5 26t-40 51.5t-17.5 83.5t12.5 122l86 408q16 50 7 85.5t-56 35.5q-91 0 -178 -94l-127 -596q-14 -66 -62 -97.5t-110 -31.5q-55 0 -96 26 l143 672q15 50 6 85.5t-55 35.5q-100 0 -189 -107l-125 -583q-14 -66 -62 -97.5t-110 -31.5q-55 0 -96 26z" />
<glyph unicode="&#x443;" horiz-adv-x="940" d="M-219 -537q0 54 17 103t45 89t74 79t93.5 70t115 65.5t127.5 62.5t141 64q3 1 5 2q6 22 20 74t23 82q-134 -168 -274 -168q-59 0 -100 23t-61 60t-27.5 89t-3 105t17.5 114l96 420q6 24 0 37.5t-20 13.5q-13 0 -41 -25q-23 13 -25.5 50t25.5 63q125 98 229 98 q58 0 84.5 -27.5t13.5 -84.5l-127 -590q-11 -51 5.5 -82t64.5 -31q81 0 158 74l133 612q14 66 62 97.5t110 31.5q55 0 96 -26l-174 -811q-9 -43 -18 -84q192 94 292 178q24 -21 26 -50t-23 -53q-32 -29 -127 -87t-195 -105q-22 -89 -44 -164t-54 -157.5t-66.5 -147.5 t-81.5 -126t-100 -101t-120.5 -64t-143.5 -24q-44 0 -87.5 16t-79.5 45.5t-58.5 79t-22.5 110.5zM-53 -510q0 -48 28.5 -72t55.5 -24q103 0 174.5 106.5t152.5 362.5q-104 -51 -169 -88t-125.5 -83.5t-88.5 -95.5t-28 -106z" />
<glyph unicode="&#x444;" horiz-adv-x="1425" d="M-111 -514q0 127 144 127q41 0 84 -29q-35 -40 -35 -92q0 -96 57 -96q31 0 59.5 16.5t53.5 51.5t45.5 71.5t40.5 94.5t34.5 102t31 112t25 107.5t22.5 103.5l8 45q-107 -116 -238 -116q-56 0 -99.5 23.5t-68.5 59t-40.5 84t-21 91t-5.5 86.5q0 166 58.5 327t166.5 263 q122 116 262 116q106 0 160 -100l35 164q42 198 161 311t269 113q78 0 116.5 -38t38.5 -87q0 -38 -26.5 -62.5t-63.5 -17.5q0 59 -76 59q-65 0 -104 -73.5t-70 -217.5l-34 -167q107 116 239 116q56 0 99.5 -23t68.5 -58.5t41 -83t21.5 -89.5t5.5 -86q0 -166 -59 -327 t-167 -263q-126 -120 -262 -120q-110 0 -164 106l-12 -65q-44 -211 -102 -361t-129.5 -238.5t-151 -128.5t-174.5 -40q-102 0 -173 59.5t-71 169.5zM240 342q0 -164 116 -164q34 0 62 15t74 59l112 545q-11 38 -28 54.5t-52 16.5q-66 0 -118 -39.5t-82 -98.5t-50 -133.5 t-27 -137t-7 -117.5zM733 229q11 -40 28.5 -57.5t53.5 -17.5q66 0 118 39.5t82.5 98.5t50.5 133.5t27 137t7 117.5q0 164 -117 164q-34 0 -63 -15.5t-74 -60.5z" />
<glyph unicode="&#x445;" horiz-adv-x="983" d="M-102 213q0 127 143 127q41 0 84 -29q-35 -76 -35 -161q74 42 141 108t154 207l-43 346q-3 28 -19.5 46.5t-42.5 23.5t-63 -9.5t-76 -48.5q-24 22 -25.5 53t25.5 60q122 106 219 106q104 0 154 -61t68 -199l18 -145q158 183 158 291q0 39 -27.5 68t-83.5 28 q3 75 42.5 116.5t94.5 41.5q37 0 68 -10.5t59 -34t39 -71t0 -112.5q-18 -101 -96.5 -199.5t-239.5 -236.5l19 -145q24 -195 135 -195q54 0 113.5 30.5t101.5 72.5q35 -15 35 -50q0 -23 -19 -45q-75 -85 -174 -143.5t-180 -58.5q-98 0 -156 69t-86 250q-220 -319 -360 -319 q-65 0 -105 60t-40 169z" />
<glyph unicode="&#x446;" horiz-adv-x="1026" d="M-22 276.5q4 49.5 16 100.5l96 420q6 24 0 37.5t-20 13.5q-13 0 -41 -25q-23 13 -25.5 50t25.5 63q125 98 229 98q58 0 84.5 -27.5t13.5 -84.5l-125 -582q-26 -121 70 -121q99 0 188 107l123 579q14 66 62 97.5t110 31.5q56 0 97 -26l-144 -678q-14 -76 -3 -110.5 t33.5 -38t51 23.5t49.5 74q42 6 74 -31q5 -136 -24 -251.5t-78.5 -191t-114 -129.5t-129 -77.5t-125.5 -24.5q-92 0 -128.5 47.5t-19 114t75.5 127.5q26 -35 89 -41.5t132.5 14t132 82.5t83.5 152q-27 -38 -70.5 -62t-89.5 -24q-40 0 -73.5 11.5t-62.5 36.5t-44 71.5 t-11 111.5q-142 -231 -299 -231q-65 0 -110 26.5t-66 67t-28.5 95t-3.5 104z" />
<glyph unicode="&#x447;" horiz-adv-x="976" d="M3.5 873q-2.5 37 25.5 63q125 98 229 98q58 0 84.5 -27.5t13.5 -84.5l-57 -265q-26 -120 70 -120q78 0 155 90l60 278q14 66 58.5 97.5t105.5 31.5q55 0 96 -26l-144 -678q-33 -152 62 -152q54 0 113.5 30.5t101.5 72.5q35 -15 35 -50q0 -23 -19 -45q-178 -202 -348 -202 q-28 0 -53.5 5.5t-53 19t-46.5 37t-33.5 59t-14 85t12.5 115.5l35 166q-106 -129 -238 -129q-266 0 -186 352l22 103q6 24 0 37.5t-20 13.5q-13 0 -41 -25q-23 13 -25.5 50z" />
<glyph unicode="&#x448;" horiz-adv-x="1521" d="M-22 276.5q4 49.5 16 100.5l96 420q6 24 0 37.5t-20 13.5q-13 0 -41 -25q-23 13 -25.5 50t25.5 63q125 98 229 98q121 0 98 -112l-125 -582q-26 -121 70 -121q99 0 188 107l123 579q14 66 62 97.5t110 31.5q56 0 97 -26l-142 -668q-26 -121 70 -121q99 0 188 107l123 579 q14 66 62 97.5t110 31.5q56 0 97 -26l-144 -678q-33 -152 62 -152q54 0 113.5 30.5t101.5 72.5q34 -15 34 -50q0 -24 -18 -45q-73 -89 -166 -145.5t-188 -56.5q-40 0 -73.5 11.5t-62.5 36.5t-44 71.5t-11 111.5q-142 -231 -299 -231q-108 0 -157 64t-52 165 q-143 -229 -299 -229q-65 0 -110 26.5t-66 67t-28.5 95t-3.5 104z" />
<glyph unicode="&#x449;" horiz-adv-x="1533" d="M-22 276.5q4 49.5 16 100.5l96 420q6 24 0 37.5t-20 13.5q-13 0 -41 -25q-23 13 -25.5 50t25.5 63q125 98 229 98q58 0 84.5 -27.5t13.5 -84.5l-125 -582q-26 -121 70 -121q99 0 188 107l123 579q14 66 62 97.5t110 31.5q56 0 97 -26l-142 -668q-26 -121 70 -121 q99 0 188 107l123 579q14 66 62 97.5t110 31.5q56 0 97 -26l-144 -678q-14 -76 -3 -110.5t33.5 -38t51 23.5t49.5 74q42 6 74 -31q5 -136 -24 -251.5t-78.5 -191t-114 -129.5t-129 -77.5t-125.5 -24.5q-92 0 -128.5 47.5t-19 114t75.5 127.5q26 -35 89 -41.5t132 14 t131.5 82.5t83.5 152q-27 -38 -70 -62t-89 -24q-40 0 -73.5 11.5t-62.5 36.5t-44 71.5t-11 111.5q-142 -231 -299 -231q-108 0 -157 64t-52 165q-143 -229 -299 -229q-65 0 -110 26.5t-66 67t-28.5 95t-3.5 104z" />
<glyph unicode="&#x44a;" horiz-adv-x="782" d="M-16 227q0 141 101.5 310t250.5 323q-35 -5 -103.5 -7t-115.5 -11.5t-86 -36.5q-27 43 -27 90q0 66 43.5 113t114.5 47q31 0 72.5 -12t74 -23t87 -14.5t110.5 14.5q27 -10 41 -40t14 -69q0 -38 -26 -61q-154 -135 -228 -244q106 68 201 68q78 0 125 -51.5t47 -163.5 q0 -85 -28 -161.5t-74.5 -132.5t-105.5 -97.5t-122.5 -62.5t-124.5 -21q-106 0 -173.5 61.5t-67.5 181.5zM209 324q0 -89 27.5 -134t68.5 -45q58 0 110 73.5t52 180.5q0 55 -27.5 88t-85.5 33q-62 0 -118 -47q-27 -73 -27 -149z" />
<glyph unicode="&#x44b;" horiz-adv-x="1284" d="M-22 276.5q4 49.5 16 100.5l96 420q6 24 0 37.5t-20 13.5q-13 0 -41 -25q-23 13 -25.5 50t25.5 63q125 98 229 98q58 0 84.5 -27.5t13.5 -84.5l-125 -582q-19 -90 3 -138t67 -48q26 0 55 17.5t59 59t39.5 111t-3.5 174.5q-50 -3 -109 4q-34 76 -0.5 135.5t119.5 59.5 q57 0 110 -35q180 96 353 303q14 18 49 34.5t82 16.5q55 0 96 -26l-143 -678q-33 -152 61 -152q54 0 113.5 30.5t101.5 72.5q35 -15 35 -50q0 -23 -19 -45q-78 -89 -175.5 -145.5t-194.5 -56.5q-33 0 -63 7.5t-59 24.5t-46.5 45t-25.5 69t5 97l119 566q-107 -116 -219 -187 q33 -58 33 -127q0 -70 -17.5 -138t-56 -133t-94.5 -114.5t-138.5 -79.5t-181.5 -30q-65 0 -110 26.5t-66 67t-28.5 95t-3.5 104z" />
<glyph unicode="&#x44c;" horiz-adv-x="776" d="M-22 276.5q4 49.5 16 100.5l96 420q6 24 0 37.5t-20 13.5q-13 0 -41 -25q-23 13 -25.5 50t25.5 63q125 98 229 98q121 0 98 -112l-59 -277q106 49 205 49q88 0 140 -51.5t52 -163.5q0 -55 -23 -120.5t-68.5 -131.5t-105.5 -120.5t-141.5 -88.5t-169.5 -34 q-65 0 -110 26.5t-66 67t-28.5 95t-3.5 104zM231 340q-19 -90 3.5 -143.5t66.5 -53.5q65 0 122.5 76t57.5 201q0 55 -27 88t-85 33q-51 0 -101 -23z" />
<glyph unicode="&#x44d;" horiz-adv-x="784" d="M-106 213q0 127 143 127q40 0 84 -29q-35 -40 -35 -92q0 -45 32 -77.5t75 -32.5q94 0 166 91.5t98 276.5h-326q-8 49 16 84t70 35h252q2 29 2 92q0 101 -37.5 154t-97.5 53q-46 0 -97 -22.5t-92 -63.5q-32 0 -38.5 34.5t8.5 49.5q73 87 152.5 121.5t181.5 34.5 q119 0 190.5 -91t71.5 -221q0 -132 -26.5 -245.5t-71.5 -194t-102.5 -142.5t-123 -98.5t-129 -54.5t-123.5 -18q-101 0 -172 59t-71 170z" />
<glyph unicode="&#x44e;" horiz-adv-x="1368" d="M-80 10l170 787q9 51 -20 51q-13 0 -41 -25q-23 13 -25.5 50t25.5 63q125 98 229 98q58 0 84.5 -27.5t13.5 -84.5l-71 -332q136 0 229 39q66 178 190.5 295.5t280.5 117.5q159 0 238.5 -102.5t79.5 -263.5q0 -92 -25 -189t-73.5 -186.5t-112.5 -160.5t-150.5 -113.5 t-179.5 -42.5q-77 0 -136 29t-94 80t-53 115t-18 138q0 91 20 172q-96 -57 -225 -63l-74 -342q-14 -66 -59.5 -97.5t-106.5 -31.5q-55 0 -96 26zM723 412q0 -127 37 -188.5t96 -61.5q77 0 146.5 88t108 210.5t38.5 231.5q0 88 -29.5 141.5t-89.5 53.5q-67 0 -126 -46 t-97.5 -116.5t-61 -153.5t-22.5 -159z" />
<glyph unicode="&#x44f;" horiz-adv-x="1030" d="M-100 213q0 127 143 127q40 0 84 -29q-35 -76 -35 -161q43 25 75 52t73.5 85.5t81.5 144.5q-95 25 -145 94.5t-50 161.5q0 90 39 160.5t102.5 112t136 62.5t148.5 21q72 0 129 -19.5t99 -61t54.5 -106.5t-4.5 -157l-77 -370q-33 -152 61 -152q54 0 113.5 30.5t101.5 72.5 q35 -15 35 -50q0 -24 -18 -45q-76 -86 -173.5 -144t-181.5 -58q-28 0 -53.5 5.5t-53.5 19t-47 37t-34 59t-14.5 85t12.5 115.5l24 115h-96q-34 -73 -71 -138t-88.5 -137t-110.5 -116t-115 -45q-65 -2 -105 58.5t-40 170.5zM362 688q-2 -66 24.5 -111t76.5 -45h86l51 236 q17 79 -4 117.5t-64 38.5q-76 0 -122 -73t-48 -163z" />
<glyph unicode="&#x451;" horiz-adv-x="849" d="M-23 350q0 68 15 144t43 153.5t73 148.5t100 126t129 87.5t155 32.5q67 0 114.5 -17t72 -47t35.5 -62t11 -70q0 -69 -21 -126.5t-74 -122t-149.5 -134t-242.5 -150.5q27 -151 190 -151q108 0 232.5 66t191.5 155q38 7 54 -17.5t-3 -52.5q-103 -152 -263.5 -240.5 t-313.5 -88.5q-154 0 -251.5 93t-97.5 273zM231 401q155 98 244.5 202t89.5 200q0 35 -16.5 57.5t-42.5 22.5q-58 0 -106 -37t-77.5 -91.5t-50.5 -122.5t-30 -125.5t-11 -105.5zM238 1315q0 54 36.5 90.5t90.5 36.5t90.5 -36.5t36.5 -90.5t-36.5 -90.5t-90.5 -36.5 t-90.5 36.5t-36.5 90.5zM641 1315q0 54 37 90.5t90 36.5q54 0 90.5 -36.5t36.5 -90.5t-36.5 -90.5t-90.5 -36.5q-53 0 -90 36.5t-37 90.5z" />
<glyph unicode="&#x2000;" horiz-adv-x="975" />
<glyph unicode="&#x2001;" horiz-adv-x="1950" />
<glyph unicode="&#x2002;" horiz-adv-x="975" />
<glyph unicode="&#x2003;" horiz-adv-x="1950" />
<glyph unicode="&#x2004;" horiz-adv-x="650" />
<glyph unicode="&#x2005;" horiz-adv-x="487" />
<glyph unicode="&#x2006;" horiz-adv-x="325" />
<glyph unicode="&#x2007;" horiz-adv-x="325" />
<glyph unicode="&#x2008;" horiz-adv-x="243" />
<glyph unicode="&#x2009;" horiz-adv-x="390" />
<glyph unicode="&#x200a;" horiz-adv-x="108" />
<glyph unicode="&#x2010;" horiz-adv-x="686" d="M16 535q0 55 50 93t133 38q45 0 121 -9.5t110 -9.5q63 0 113 31q24 -39 24 -74q0 -59 -50 -104t-128 -45q-42 0 -119.5 23.5t-124.5 23.5q-69 0 -102 -41q-27 38 -27 74z" />
<glyph unicode="&#x2011;" horiz-adv-x="686" d="M16 535q0 55 50 93t133 38q45 0 121 -9.5t110 -9.5q63 0 113 31q24 -39 24 -74q0 -59 -50 -104t-128 -45q-42 0 -119.5 23.5t-124.5 23.5q-69 0 -102 -41q-27 38 -27 74z" />
<glyph unicode="&#x2012;" horiz-adv-x="686" d="M16 535q0 55 50 93t133 38q45 0 121 -9.5t110 -9.5q63 0 113 31q24 -39 24 -74q0 -59 -50 -104t-128 -45q-42 0 -119.5 23.5t-124.5 23.5q-69 0 -102 -41q-27 38 -27 74z" />
<glyph unicode="&#x2013;" horiz-adv-x="808" d="M16 555q0 58 50 98.5t133 40.5q60 0 153 -15t161 -15t128 30q20 -26 24 -58t-8 -61.5t-34.5 -55t-58.5 -41t-77 -15.5q-59 0 -171 29.5t-171 29.5q-69 0 -102 -41q-27 37 -27 74z" />
<glyph unicode="&#x2014;" horiz-adv-x="1234" d="M16 548q0 38 23 69t70.5 51t109.5 20q118 0 297 -15t309.5 -15t245.5 30q25 -38 24.5 -86t-21.5 -89t-62.5 -69t-93.5 -28q-105 0 -238.5 25t-273.5 50t-261 25q-69 0 -102 -41q-27 35 -27 73z" />
<glyph unicode="&#x2018;" horiz-adv-x="442" d="M57 1169q0 108 89.5 227t185.5 160q18 0 30.5 -14.5t12.5 -38.5q-78 -89 -78 -170q0 -32 23.5 -83.5t23.5 -88.5q0 -56 -41 -96.5t-100 -40.5q-62 0 -104 43t-42 102z" />
<glyph unicode="&#x2019;" horiz-adv-x="442" d="M57 1077q78 89 78 170q0 32 -23.5 83.5t-23.5 88.5q0 56 41 96.5t100 40.5q62 0 104 -43t42 -102q0 -108 -89.5 -227t-185.5 -160q-18 0 -30.5 14.5t-12.5 38.5z" />
<glyph unicode="&#x201a;" horiz-adv-x="442" d="M4 -242q54 46 83 100t32 100.5t-6 84t-27 61.5q8 57 49.5 96.5t100.5 39.5q61 0 97 -39t36 -99q0 -114 -94 -230.5t-236 -166.5q-19 -6 -32 10.5t-3 42.5z" />
<glyph unicode="&#x201c;" horiz-adv-x="792" d="M57 1169q0 108 89.5 227t185.5 160q18 0 30.5 -14.5t12.5 -38.5q-78 -89 -78 -170q0 -32 23.5 -83.5t23.5 -88.5q0 -56 -41 -96.5t-100 -40.5q-62 0 -104 43t-42 102zM422 1169q0 108 89.5 227t184.5 160q18 0 30.5 -14.5t12.5 -38.5q-77 -88 -77 -170q0 -32 23.5 -83.5 t23.5 -88.5q0 -56 -41.5 -96.5t-100.5 -40.5q-62 0 -103.5 42.5t-41.5 102.5z" />
<glyph unicode="&#x201d;" horiz-adv-x="792" d="M57 1077q78 89 78 170q0 32 -23.5 83.5t-23.5 88.5q0 56 41 96.5t100 40.5q62 0 104 -43t42 -102q0 -108 -89.5 -227t-185.5 -160q-18 0 -30.5 14.5t-12.5 38.5zM422 1077q78 89 78 170q0 32 -23.5 83.5t-23.5 88.5q0 56 41 96.5t100 40.5q62 0 103.5 -42.5t41.5 -102.5 q0 -108 -89.5 -227t-184.5 -160q-18 0 -30.5 14.5t-12.5 38.5z" />
<glyph unicode="&#x201e;" horiz-adv-x="792" d="M57 -242q78 89 78 170q0 32 -23.5 83.5t-23.5 88.5q0 56 41 97t100 41q62 0 104 -43t42 -103q0 -108 -89.5 -227t-185.5 -160q-18 0 -30.5 14.5t-12.5 38.5zM422 -242q78 89 78 170q0 32 -23.5 83.5t-23.5 88.5q0 56 41 97t100 41q62 0 103.5 -43t41.5 -103 q0 -108 -89.5 -227t-184.5 -160q-18 0 -30.5 14.5t-12.5 38.5z" />
<glyph unicode="&#x2022;" horiz-adv-x="538" d="M14 580q5 90 70.5 152.5t155.5 62.5q89 0 149 -63t55 -152q-6 -91 -71 -153t-156 -62q-90 0 -149.5 62.5t-53.5 152.5z" />
<glyph unicode="&#x202f;" horiz-adv-x="390" />
<glyph unicode="&#x205f;" horiz-adv-x="487" />
<glyph unicode="&#x20ac;" horiz-adv-x="1142" d="M-121 571q0 47 35.5 86t99.5 39h41q5 50 15 109h-82q-19 19 -19 53q0 47 35.5 86t99.5 39h9q81 261 250 427.5t370 166.5q72 0 128 -23t89.5 -60.5t50.5 -82.5t17 -94q0 -85 -46.5 -147t-119.5 -62q-32 0 -68.5 21.5t-52.5 60.5q45 18 70 60t24 83.5t-32 73t-88 31.5 q-92 0 -180 -128.5t-140 -326.5h287q16 -26 16 -61q0 -47 -34 -82t-99 -35h-203q-8 -76 -10 -109h240q16 -26 16 -61q0 -47 -34 -82t-99 -35h-121q16 -157 87 -250.5t198 -93.5q193 0 274 166q29 0 45.5 -14.5t16.5 -40.5q0 -70 -66 -140.5t-172 -115.5t-213 -45 q-109 0 -195.5 42.5t-141.5 117t-86 169t-38 205.5h-155q-19 19 -19 53z" />
<glyph unicode="&#x25fc;" horiz-adv-x="1177" d="M0 0v1178h1178v-1178h-1178z" />
</font>
</defs>
</svg>
